Avenged Sevenfold - Hail To The King (2013) [Official Digital Download]

Posted By: HDV
Avenged Sevenfold - Hail To The King (2013) [Official Digital Download]

Avenged Sevenfold - Hail To The King (2013)
FLAC (tracks) 24 bit/48 kHz | Time - 53:22 minutes | 732 MB
Studio Master, Official Digital Download | Artwork: Front cover

Produced by Mike Elizondo, Hail To The King is the follow up to the band's 2010 release, Nightmare, which debuted at Number One on the Billboard Top 200 Album Chart, Hard Rock Chart and Digital Chart.

Following the release of "Carry On" for the Call of Duty Arms: Black Ops II video game, Avenged Sevenfold returned to the studio with new drummer, Arin Ilejay of Confide, to record 2013's Hail to the King. In a press announcement, vocalist M. Shadows announced they would be attempting to go back to their Black Sabbath and Led Zeppelin roots, and at the surface, the idea of dumbing down their music to sturdy classic rock grooves made a lot of sense, since many of the compositions on their last two albums had become overwrought with studio overdubbing. Unfortunately, once they tried to take inspiration from other bands, they mimicked them so well that they lost their sense of identity in the process. "Doing Time" came straight out of the Guns N' Roses songbook, "This Means War" is a direct rip of Metallica's "Sad But True," and "Crimson Day" could be any number of '80s hair metal power ballads. By the album's second half, Avenged Sevenfold can't help but let loose their guitar shredding theatrics a bit, and their personality starts to shine through as the tempo quickens and tracks take flight to unabashed heights. "Heretic" and "Coming Home" are still firmly indebted to their roots (specifically, Megadeth and Iron Maiden) but they are exciting metal numbers, and they set the stage for the colossal "Planets,", which incorporates motifs from "The Planets" suite by 20th century composer Gustav Holst and includes all the arpeggiated soloing and operatic yowling you could ever want. If this sounds ridiculous, that's because it is, but it's undeniably more fun to hear the members pushing themselves and showboating than doing mock covers.

Tracklist:

01 - Sheperd Of Fire
02 - Hail To The King
03 - Doing Time
04 - This Means War
05 - Requiem
06 - Crimson Day
07 - Heretic
08 - Coming Home
09 - Planets
10 - Acid Rain

Musicians:
M. Shadows - vocals
Synyster Gates - lead guitar
Zacky Vengeance - rhythm guitar
Johnny Christ - bass
Arin Ilejay - drums

Analyzed: Avenged Sevenfold / Hail To The King
––––––––––––––––––––––––––––––––––––––––

DR Peak RMS Duration Track
––––––––––––––––––––––––––––––––––––––––
DR10 -0.08 dB -11.45 dB 5:23 01-Sheperd Of Fire
DR9 -0.08 dB -10.88 dB 5:05 02-Hail To The King
DR10 -0.08 dB -10.83 dB 3:27 03-Doing Time
DR10 -0.08 dB -11.02 dB 6:09 04-This Means War
DR10 -0.08 dB -11.08 dB 4:24 05-Requiem
DR10 -0.08 dB -11.51 dB 4:57 06-Crimson Day
DR10 -0.08 dB -11.80 dB 4:55 07-Heretic
DR10 -0.08 dB -11.09 dB 6:26 08-Coming Home
DR10 -0.08 dB -10.97 dB 5:56 09-Planets
DR10 -0.08 dB -12.19 dB 6:39 10-Acid Rain
––––––––––––––––––––––––––––––––––––––––

Number of tracks: 10
Official DR value: DR10

Samplerate: 48000 Hz
Channels: 2
Bits per sample: 24
Bitrate: 1686 kbps
Codec: FLAC
================================================================================


Thanks to the Original customer!