Ayo - Ayo (2017) [Official Digital Download]

Posted By: HDV
Ayo - Ayo (2017) [Official Digital Download]

Ayo - Ayo (2017)
FLAC (tracks) 24-bit/44,1 kHz | Time - 59:16 minutes | 670 MB
Studio Master, Official Digital Download | Artwork: Front cover

The self-titled fifth album from Brooklyn-based singer/songwriter Ayo is a collection of soulful, sometimes reggae-tinged folk songs. On Ayo, the musician stepped up in the writing and production departments to take on more responsibility than on her past efforts, such as Joyful and Gravity at Last. The result is an album derived from an eclectic musical background that touches on a wide range of themes, such as her call for justice on the Ferguson-inspired "Boom Boom", or casting aside material things and figuring out what really matters on the album's opening track, "Nothing".

Tracklist:

01 - Nothing
02 - All I Want
03 - Paname
04 - Boom Boom
05 - Why
06 - If Love Is a Killer
07 - Velvet Clouds
08 - Cupcakes and Candies
09 - Let It Rain
10 - I Pray
11 - I'm a Fool
12 - Again
13 - Forever and Beyond
14 - Fearless

Analyzed: Ayo / Ayo
––––––––––––––––––––––––––––––––––––––––

DR Peak RMS Duration Track
––––––––––––––––––––––––––––––––––––––––
DR6 -0.30 dB -8.23 dB 4:30 01-Nothing
DR7 -0.30 dB -8.46 dB 3:38 02-All I Want
DR8 -0.30 dB -9.42 dB 2:37 03-Paname
DR7 -0.30 dB -9.70 dB 3:59 04-Boom Boom
DR6 -0.30 dB -9.10 dB 3:50 05-Why
DR7 -0.30 dB -8.40 dB 3:00 06-If Love Is a Killer
DR8 -0.30 dB -10.72 dB 4:40 07-Velvet Clouds
DR7 -0.30 dB -10.12 dB 3:47 08-Cupcakes and Candies
DR7 -0.30 dB -8.64 dB 4:29 09-Let It Rain
DR5 -0.30 dB -6.66 dB 4:36 10-I Pray
DR8 -0.30 dB -9.99 dB 4:28 11-I'm a Fool
DR6 -0.30 dB -9.10 dB 3:33 12-Again
DR8 -0.30 dB -9.89 dB 4:34 13-Forever and Beyond
DR8 -0.30 dB -11.54 dB 7:36 14-Fearless
––––––––––––––––––––––––––––––––––––––––

Number of tracks: 14
Official DR value: DR7

Samplerate: 44100 Hz
Channels: 2
Bits per sample: 24
Bitrate: 1383 kbps
Codec: FLAC
================================================================================


Thanks to the Original customer!

Ayo - Ticket To The World (2013)