Barb Jungr - Walking In The Sun (2006) MCH PS3 ISO + Hi-Res FLAC

Posted By: HDAtall
Barb Jungr - Walking In The Sun (2006) MCH PS3 ISO + Hi-Res FLAC

Barb Jungr - Walking In The Sun (2006)
PS3 Rip | SACD ISO | DST64 2.0 & 5.1 > 1-bit/2.8224 MHz | 54:41 minutes | Scans included | 3,35 GB
or FLAC 2.0 Stereo(converted with foobar2000 to tracks) 24bit/48 kHz | Full Scans included | 657 MB
Features Stereo and Multichannel Surround Sound | Linn Records # AKD 283

"Walking in the Sun" heralds a new direction for one of Europe’s finest voices. Drawing on influences from a wide range of musical traditions, including gospel and the blues, the album also includes some exciting new self-penned material. Music lovers will appreciate lyrics by Jimmy Reed, Carole King and Randy Newman as well as a new song by Eric Bibb.

Barb Jungr is a very well known singer in her native England, where she's had a lengthy career of performances and collaborations with numerous artists; most recently, she participated in the "Girl Talk" sessions with Claire Martin and Mari Wilson. She's also become quite something of a musicologist, with a very keen interest in world music and she's lectured extensively about singing and vocal performance. Her repertory is quite broad, encompassing diverse styles ranging from French chansons to cabaret, folk, gospel and blues. This superb disc from Linn Records features an eclectic mix of gospel and blues, as well as songs from artists as diverse as Bob Dylan, Randy Newman and Carole King, and includes a couple of self-penned tunes as well. The resulting album has a very spiritual feel to it, and Barb Jungr finds a way to make just about every song in this stunning assortment her own.
Barb's smoky-sweet alto is perfect here; on the disc's opening track Who Do You Love (popularized by George Thorogood's raunch-n-roll version) she lends a very light vocal touch (almost a whisper), which theoretically seems totally wrong for this song, but she makes it just oh-so-right. The next track, Bob Dylan's Trouble In Mind opens with a sensationally smooth upright bass and finger-snapping intro, and segues into Barb's spot-on vocal - this woman really knows how to sing the blues, and she can really belt it out as required. Jessica Lauren lends a lightly-played organ accompaniment that's sheer perfection - one thing that's evident from the start is how the vocal and instrumental textures are so perfectly arranged throughout this excellent disc. There are a few weak spots - I'm not particularly enamoured with Barb's delivery of the Jimmy Cliff classic Many Rivers To Cross, but then I can't begin to tell you how many times I've hit the replay button on her soulful delivery of Brownie McGhee's Rainy Day. It's one of those magical moments where everything worked perfectly, and the resulting sounds are irresistible.
The sound quality of this multichannel hybrid SACD is superb. All of my listening was done in the multichannel mode, and the instruments and voices are expertly placed in the recorded soundfield - this is a textbook example of how surround sound should be done right. Highly recommended.

Tracklist:

01. Who do you love?
02. Trouble in Mind
03. Beautiful Life
04. Drink Me Up
05. Walking in Memphis
06. Walking in the Sun
07. Rainy Day
08. Take Out Some Insurance
09. Run on for a Long Time / God Song
10. Blind Willie McTell
11. Many Rivers to Cross
12. Heading Home
13. Way Over Yonder

foobar2000 1.4.8 / Dynamic Range Meter 1.1.1

––––––––––––––––––––––––––––––––––––––––
Analyzed: Barb Jungr / Walking in the Sun
––––––––––––––––––––––––––––––––––––––––

DR Peak RMS Duration Track
––––––––––––––––––––––––––––––––––––––––
DR11 -6.36 dB -22.64 dB 2:55 01-Who do you love?
DR11 -6.00 dB -21.84 dB 4:32 02-Trouble in Mind
DR9 -6.36 dB -21.98 dB 4:07 03-Beautiful Life
DR9 -6.16 dB -21.15 dB 3:56 04-Drink Me Up
DR9 -6.30 dB -20.48 dB 3:47 05-Walking in Memphis
DR10 -6.36 dB -21.53 dB 4:12 06-Walking in the Sun
DR11 -6.67 dB -25.14 dB 5:55 07-Rainy Day
DR11 -6.48 dB -22.28 dB 2:58 08-Take Out Some Insurance
DR10 -6.30 dB -22.88 dB 4:17 09-Run on for a Long Time / God Song
DR10 -6.64 dB -22.39 dB 4:12 10-Blind Willie McTell
DR10 -6.45 dB -21.35 dB 5:34 11-Many Rivers to Cross
DR9 -6.60 dB -21.86 dB 4:03 12-Heading Home
DR11 -8.20 dB -26.84 dB 4:13 13-Way Over Yonder
––––––––––––––––––––––––––––––––––––––––

Number of tracks: 13
Official DR value: DR10

Samplerate: 2822400 Hz / PCM Samplerate: 88200 Hz
Channels: 6
Bits per sample: 24
Bitrate: 16934 kbps
Codec: DST64
================================================================================

––––––––––––––––––––––––––––––––––––––––
Analyzed: Barb Jungr / Walking in the Sun
––––––––––––––––––––––––––––––––––––––––

DR Peak RMS Duration Track
––––––––––––––––––––––––––––––––––––––––
DR10 -5.75 dB -18.03 dB 2:55 01-Who do you love?
DR9 -5.68 dB -17.22 dB 4:32 02-Trouble in Mind
DR8 -6.02 dB -17.23 dB 4:07 03-Beautiful Life
DR8 -5.92 dB -16.52 dB 3:56 04-Drink Me Up
DR8 -5.84 dB -15.81 dB 3:47 05-Walking in Memphis
DR9 -5.68 dB -16.62 dB 4:12 06-Walking in the Sun
DR9 -6.20 dB -20.02 dB 5:55 07-Rainy Day
DR9 -5.27 dB -17.16 dB 2:58 08-Take Out Some Insurance
DR9 -5.95 dB -17.69 dB 4:17 09-Run on for a Long Time / God Song
DR8 -6.12 dB -17.21 dB 4:12 10-Blind Willie McTell
DR8 -5.86 dB -16.27 dB 5:35 11-Many Rivers to Cross
DR9 -6.11 dB -16.81 dB 4:03 12-Heading Home
DR11 -7.08 dB -21.65 dB 4:13 13-Way Over Yonder
––––––––––––––––––––––––––––––––––––––––

Number of tracks: 13
Official DR value: DR9

Samplerate: 2822400 Hz / PCM Samplerate: 88200 Hz
Channels: 2
Bits per sample: 24
Bitrate: 5645 kbps
Codec: DST64


Thanks to KingCrim!
Uncompressed SACD ISO size > 3,16 GB

BARB JUNGR on SACDs
>