Barry Manilow - Ultimate Manilow (2002) [Reissue 2015] PS3 ISO + Hi-Res FLAC

Posted By: HDAtall
Barry Manilow - Ultimate Manilow (2002) [Reissue 2015] PS3 ISO + Hi-Res FLAC

Barry Manilow - Ultimate Manilow (2002) [Reissue 2015]
PS3 Rip | SACD ISO | DSD64 2.0 > 1-bit/2.8224 MHz | 78:41 minutes | Scans included | 2,24 GB
or FLAC(converted with foobar2000 to tracks) 24bit/44,1 kHz | Full Scans included | 953 MB

Unlike some other MOR pop stars, Barry Manilow never enjoyed the sort of swinging-hipster revival that made him a hot name to drop, ironically or otherwise. Incredibly enough, until the release of Ultimate Manilow in 2002, there was no comprehensive single-disc hits package on the market – a shockingly long wait for one of the most popular hitmakers of the '70s, hip or not, and clearly the demand was there; Ultimate Manilow entered the charts at number three.

Tracklist:

01. Could It Be Magic
02. Let's Hang On
03. Read 'em And Weep
04. Bermuda Triangle
05. Mandy
06. Can't Smile Without You
07. I Made It Through the Rain
08. Some Kind of Friend
09. It's a Miracle
10. Somewhere in the Night
11. The Old Songs
12. You're Lookin' Hot Tonight
13. Even Now
14. Copacabana (At the Copa) (Long Version)
15. Ready to Take a Chance Again
16. I Write the Songs
17. Moonlight Serenade
18. Strangers In The Night
19. Blue

foobar2000 1.4.3 / Dynamic Range Meter 1.1.1

––––––––––––––––––––––––––––––––––––––––
Analyzed: Barry Manilow / Ultimate Manilow
––––––––––––––––––––––––––––––––––––––––

DR Peak RMS Duration Track
––––––––––––––––––––––––––––––––––––––––
DR8 -6.13 dB -18.95 dB 6:49 01-Could It Be Magic
DR11 -5.86 dB -18.62 dB 3:09 02-Let's Hang On
DR10 -6.49 dB -19.62 dB 5:27 03-Read 'em And Weep
DR10 -7.28 dB -19.31 dB 3:48 04-Bermuda Triangle
DR10 -6.77 dB -19.86 dB 3:21 05-Mandy
DR10 -6.50 dB -20.10 dB 3:13 06-Can't Smile Without You
DR12 -6.05 dB -21.54 dB 4:27 07-I Made It Through the Rain
DR10 -6.08 dB -19.01 dB 4:04 08-Some Kind of Friend
DR10 -6.88 dB -18.71 dB 3:53 09-It's a Miracle
DR10 -6.25 dB -19.34 dB 3:27 10-Somewhere in the Night
DR10 -6.55 dB -19.40 dB 4:36 11-The Old Songs
DR11 -6.23 dB -19.12 dB 3:57 12-You're Lookin' Hot Tonight
DR9 -5.73 dB -18.64 dB 3:27 13-Even Now
DR10 -7.07 dB -20.05 dB 5:46 14-Copacabana (At the Copa) (Long Version)
DR8 -6.56 dB -16.75 dB 2:59 15-Ready to Take a Chance Again
DR9 -5.96 dB -18.78 dB 3:55 16-I Write the Songs
DR11 -6.10 dB -20.72 dB 4:51 17-Moonlight Serenade
DR9 -6.73 dB -18.63 dB 3:09 18-Strangers In The Night
DR9 -7.73 dB -18.71 dB 4:22 19-Blue
––––––––––––––––––––––––––––––––––––––––

Number of tracks: 19
Official DR value: DR10

Samplerate: 88200 Hz
Channels: 2
Bits per sample: 24
Bitrate: 5645 kbps
Codec: DSD64

Thanks to PS³SACD!
Uncompressed SACD ISO size > 3,15 GB
>