The Beach Boys - Beach Boys' Party! (1965/2015/2017) [DSD64 + Hi-Res FLAC]

Posted By: HDV
The Beach Boys - Beach Boys' Party! (1965/2015/2017) [DSD64 + Hi-Res FLAC]

The Beach Boys - Beach Boys' Party! (1965/2015/2017) [MONO & Stereo]
DSD64 (.dsf) 1 bit/2,8 MHz | Time - 62:31 minutes | 1,67 GB
FLAC (tracks) 24-bit/88,2 kHz | Time - 62:31 minutes | 1,24 GB
Studio Master, Official Digital Download | Artwork: Digital booklet

Released in November 1965 as a filler to meet Christmas demand, the Beach Boys convened in the studio with some friends, some acoustic instruments and a batch of cover songs to record this album intended to sound like there was a party going on. The covers include several songs by the Beatles, a Bob Dylan tune, some vintage rock 'n' roll and a version of Barbara Ann by The Regents, a surprise hit single for the Beach Boys that peaked at number two in the US and number three in the UK. This version contains both the mono and stereo mixes of the album.

Capitol Records, which had already released 10 Beach Boys albums in three years, was bugging the group for product that it could release in time for the 1965 Christmas season. To buy time while Brian Wilson began conceiving the Pet Sounds masterpiece, the group issued a set of covers, mostly of the '50s rock and R&B they had listened to as schoolboys. The album Beach Boys' Party! was actually recorded in a studio, but to give the album a live "party" sound, laughter and background chatter was carefully mixed in during post-production.

With the exception of a bass guitar, all the instruments heard on Beach Boys' Party were acoustic; the acoustic guitar-and-bongo arrangements, in fact, give this a hootenanny campfire feel. "In recent years, this album has gone up a few notches in critical esteem, praised for its loose, casual feel and insight into the group's influences. … It does have the massive hit 'Barbara Ann,' which actually features Dean Torrence (of Jan & Dean) on much of the lead vocals; other highlights include 'Mountain of Love,' an unexpected version of 'The Times They Are a-Changin',' and three Beatles covers".

Tracklist:

01 - Hully Gully (Stereo)
02 - I Should Have Known Better (Stereo)
03 - Tell Me Why (Stereo)
04 - Papa-Oom-Mow-Mow (Stereo)
05 - Mountain Of Love (Stereo)
06 - You've Got To Hide Your Love Away (Stereo)
07 - Devoted To You (Stereo)
08 - Alley Oop (Stereo)
09 - There's No Other (Like My Baby) (Stereo)
10 - Medley: I Get Around, Little Deuce Coup (Stereo)
11 - The Times They Are A-Changin' (Stereo)
12 - Barbara Ann (Stereo)
13 - Hully Gully (Mono)
14 - I Should Have Known Better (Mono)
15 - Tell Me Why (Mono)
16 - Papa-Oom-Mow-Mow (Mono)
17 - Mountain Of Love (Mono)
18 - You've Got To Hide Your Love Away (Mono)
19 - Devoted To You (Mono)
20 - Alley Oop (Mono)
21 - There's No Other (Like My Baby) (Mono)
22 - Medley: I Get Around, Little Deuce Coup (Mono)
23 - The Times They Are A-Changin' (Mono)
24 - Barbara Ann (Mono)

Original Mono Mix produced by Brian Wilson.
Stereo Mix produced by Mark Linett under the supervision of Brian Wilson. Mixed by Mark Linett.
Mastered by Kevin Gray at Cohearent Audio, most from the original master tapes or best sources available.
DSD Download authored by Gus Skinas.

Analyzed: The Beach Boys / Party!
––––––––––––––––––––––––––––––––––––––––

DR Peak RMS Duration Track
––––––––––––––––––––––––––––––––––––––––
DR10 -8.12 dB -21.19 dB 2:25 01-Hully Gully (Stereo)
DR10 -8.72 dB -20.81 dB 1:40 02-I Should Have Known Better (Stereo)
DR9 -8.74 dB -19.66 dB 1:47 03-Tell Me Why (Stereo)
DR8 -8.61 dB -18.70 dB 2:18 04-Papa-Oom-Mow-Mow (Stereo)
DR9 -9.34 dB -20.05 dB 2:51 05-Mountain Of Love (Stereo)
DR10 -10.06 dB -21.90 dB 2:51 06-You've Got To Hide Your Love Away (Stereo)
DR10 -9.65 dB -22.23 dB 2:20 07-Devoted To You (Stereo)
DR9 -10.01 dB -21.08 dB 2:56 08-Alley Oop (Stereo)
DR9 -9.65 dB -22.06 dB 3:05 09-There's No Other (Like My Baby) (Stereo)
DR9 -10.02 dB -21.42 dB 3:15 10-Medley: I Get Around, Little Deuce Coup (Stereo)
DR10 -9.33 dB -22.49 dB 2:36 11-The Times They Are A-Changin' (Stereo)
DR9 -9.02 dB -20.54 dB 3:19 12-Barbara Ann (Stereo)
DR11 -7.03 dB -21.89 dB 2:22 13-Hully Gully (Mono)
DR12 -7.87 dB -22.68 dB 1:40 14-I Should Have Known Better (Mono)
DR12 -7.40 dB -21.20 dB 1:46 15-Tell Me Why (Mono)
DR11 -9.04 dB -21.89 dB 2:17 16-Papa-Oom-Mow-Mow (Mono)
DR12 -7.88 dB -21.77 dB 2:51 17-Mountain Of Love (Mono)
DR13 -9.24 dB -24.76 dB 2:51 18-You've Got To Hide Your Love Away (Mono)
DR15 -6.96 dB -25.00 dB 2:22 19-Devoted To You (Mono)
DR12 -9.01 dB -22.76 dB 2:55 20-Alley Oop (Mono)
DR11 -9.05 dB -22.58 dB 3:05 21-There's No Other (Like My Baby) (Mono)
DR13 -8.25 dB -23.65 dB 3:17 22-Medley: I Get Around, Little Deuce Coup (Mono)
DR15 -6.71 dB -24.48 dB 2:35 23-The Times They Are A-Changin' (Mono)
DR13 -6.30 dB -22.06 dB 3:08 24-Barbara Ann (Mono)
––––––––––––––––––––––––––––––––––––––––

Number of tracks: 24
Official DR value: DR11

Samplerate: 2822400 Hz / PCM Samplerate: 88200 Hz
Channels: 2
Bits per sample: 1
Bitrate: 5645 kbps
Codec: DSD64
================================================================================


Thanks to the Original customer!