The Beatles - Stereo Box Set (2009) [USB Limited Edition 24 bit/44,1 kHz] RE-UP

Posted By: HDV
The Beatles - Stereo Box Set (2009) [USB Limited Edition 24 bit/44,1 kHz] RE-UP

The Beatles - Stereo Box Set (2009) [USB Limited Edition 24-44,1]
FLAC (tracks) 24 bit/44,1 kHz | Time - 619:03 minutes | Front Cover(s) | 7,69 GB
14 albums, 226 songs, over than 10 hours of Music | Source: Apple-shaped USB drive

The Beatles always stood apart from their peers, a self-evident statement that sadly extended to the treatment of their catalog in the digital age. Where all their peers from the Byrds to the Who have had their catalogs remastered and reissued in deluxe editions, sometimes several times, The Beatles remained stuck in the early days of digital, their 14 albums plus Past Masters singles collection remaining untouched since 1987. Anniversaries came and went, but no remasters arrived until the release of the video game The Beatles Rockband pushed a long-overdue revamping of the band's entire catalog into the stores on 9-9-09. This reissue campaign corrects almost all the problems of the original 1987 CDs: the sound and artwork are improved, and all the original mono and stereo mixes finally see the light of day. Naturally, it's possible to quibble about some details of the presentation, particularly the decision to split the reissue into two separate box sets, one covering the stereo mixes and one the mono mixes, with only the stereo mixes available as individual discs (it's still possible to complain that the albums do not add era-specific singles or outtakes, but such expansions were never really in the cards), but both boxes still constitute the best Beatles by far. Crucially, it's also inarguably the best-sounding Beatles music ever released, robust and rich even on the earliest rock & roll. None of the albums have been remixed – although Help! and Rubber Soul retain Martin's 1987 mixes, the original stereo mixes are bonuses on the mono set – so this doesn't shock the way the Yellow Submarine soundtrack did with its reimagined stereo mixes. Nevertheless, these remasters surely do surprise with their clarity and depth, with each album feeling bigger and fuller than the previous CD incarnation, but not artificially so. It's not that these are pumped up on digital steroids; it's that the veil has been lifted, so everything seems full and fresh. Appropriately, there's more to savor from Help! onward, as The Beatles' productions grew ambitious, but Please Please Me, With the Beatles, and A Hard Day's Night all have a strong punch, while Beatles for Sale is warmer than the previous disc.


The Beatles - Stereo Box Set (2009) [USB Limited Edition 24 bit/44,1 kHz] RE-UP

The Beatles - Please Please Me (1963/2009)
FLAC (tracks) 24 bit/44,1 kHz | Time - 32:28 minutes | 429 MB

Tracklist:

01 - I Saw Her Standing There
02 - Misery
03 - Anna (Go To Him)
04 - Chains
05 - Boys
06 - Ask Me Why
07 - Please Please Me
08 - Love Me Do
09 - P.S. I Love You
10 - Baby It's You
11 - Do You Want To Know A Secret
12 - A Taste Of Honey
13 - There's A Place
14 - Twist And Shout

Analyzed: The Beatles / Please Please Me (Stereo Remaster 2009)
––––––––––––––––––––––––––––––––––––––––

DR Peak RMS Duration Track
––––––––––––––––––––––––––––––––––––––––
DR10 -0.17 dB -12.03 dB 2:53 01-I Saw Her Standing There
DR10 -0.16 dB -11.01 dB 1:49 02-Misery
DR11 -0.17 dB -13.10 dB 2:57 03-Anna (Go To Him)
DR10 -0.17 dB -12.29 dB 2:25 04-Chains
DR11 -0.17 dB -12.86 dB 2:26 05-Boys
DR11 -0.17 dB -13.26 dB 2:27 06-Ask Me Why
DR9 -0.11 dB -11.03 dB 2:01 07-Please Please Me
DR10 -0.17 dB -11.54 dB 2:22 08-Love Me Do
DR10 -0.53 dB -11.70 dB 2:04 09-P.S. I Love You
DR10 -0.17 dB -12.67 dB 2:41 10-Baby It's You
DR10 -0.17 dB -12.62 dB 1:57 11-Do You Want To Know A Secret
DR11 -0.56 dB -13.44 dB 2:03 12-A Taste Of Honey
DR10 -0.17 dB -11.87 dB 1:50 13-There's A Place
DR10 -0.17 dB -11.42 dB 2:33 14-Twist And Shout
––––––––––––––––––––––––––––––––––––––––

Number of tracks: 14
Official DR value: DR10

Samplerate: 44100 Hz
Channels: 2
Bits per sample: 24
Bitrate: 1982 kbps
Codec: FLAC
================================================================================



The Beatles - Stereo Box Set (2009) [USB Limited Edition 24 bit/44,1 kHz] RE-UP

The Beatles - With The Beatles (1963/2009)
FLAC (tracks) 24 bit/44,1 kHz | Time - 33:04 minutes | 488 MB

Tracklist:

01 - It Won't Be Long
02 - All I've Got To Do
03 - All My Loving
04 - Don't Bother Me
05 - Little Child
06 - Till There Was You
07 - Please Mister Postman
08 - Roll Over Beethoven
09 - Hold Me Tight
10 - You Really Got A Hold On Me
11 - I Wanna Be Your Man
12 - Devil In Her Heart
13 - Not A Second Time
14 - Money (That's What I Want)

Analyzed: The Beatles / With The Beatles (Stereo Remaster 2009)
––––––––––––––––––––––––––––––––––––––––

DR Peak RMS Duration Track
––––––––––––––––––––––––––––––––––––––––
DR8 -0.11 dB -10.75 dB 2:12 01-It Won't Be Long
DR10 -0.14 dB -11.68 dB 2:03 02-All I've Got To Do
DR8 -0.17 dB -10.24 dB 2:08 03-All My Loving
DR9 -0.10 dB -11.22 dB 2:28 04-Don't Bother Me
DR10 -0.17 dB -11.38 dB 1:46 05-Little Child
DR11 -0.17 dB -13.23 dB 2:14 06-Till There Was You
DR10 -0.13 dB -10.96 dB 2:34 07-Please Mister Postman
DR10 -0.17 dB -11.72 dB 2:45 08-Roll Over Beethoven
DR9 -0.16 dB -10.63 dB 2:32 09-Hold Me Tight
DR10 -0.09 dB -11.96 dB 3:01 10-You Really Got A Hold On Me
DR9 -0.16 dB -10.63 dB 2:00 11-I Wanna Be Your Man
DR10 -0.16 dB -11.58 dB 2:26 12-Devil In Her Heart
DR9 -0.10 dB -11.36 dB 2:07 13-Not A Second Time
DR8 -0.17 dB -9.26 dB 2:48 14-Money (That's What I Want)
––––––––––––––––––––––––––––––––––––––––

Number of tracks: 14
Official DR value: DR9

Samplerate: 44100 Hz
Channels: 2
Bits per sample: 24
Bitrate: 2049 kbps
Codec: FLAC
================================================================================



The Beatles - Stereo Box Set (2009) [USB Limited Edition 24 bit/44,1 kHz] RE-UP

The Beatles - A Hard Day's Night (1964/2009)
FLAC (tracks) 24 bit/44,1 kHz | Time - 30:09 minutes | 445 MB

Tracklist:

01 - A Hard Day's Night
02 - I Should Have Known Better
03 - If I Fell
04 - I'm Happy Just To Dance With You
05 - And I Love Her
06 - Tell Me Why
07 - Can't Buy Me Love
08 - Any Time At All
09 - I'll Cry Instead
10 - Things We Said Today
11 - When I Get Home
12 - You Can't Do That
13 - I'll Be Back

Analyzed: The Beatles / A Hard Day's Night (Stereo Remaster 2009)
––––––––––––––––––––––––––––––––––––––––

DR Peak RMS Duration Track
––––––––––––––––––––––––––––––––––––––––
DR9 -0.10 dB -10.45 dB 2:33 01-A Hard Day's Night
DR9 -0.17 dB -11.57 dB 2:43 02-I Should Have Known Better
DR9 -0.18 dB -11.77 dB 2:19 03-If I Fell
DR9 -0.11 dB -11.11 dB 1:56 04-I'm Happy Just To Dance With You
DR10 -0.17 dB -12.99 dB 2:30 05-And I Love Her
DR9 -0.14 dB -9.96 dB 2:09 06-Tell Me Why
DR9 -0.15 dB -10.02 dB 2:12 07-Can't Buy Me Love
DR9 -0.10 dB -11.38 dB 2:11 08-Any Time At All
DR10 -0.12 dB -10.77 dB 1:46 09-I'll Cry Instead
DR9 -0.11 dB -10.68 dB 2:35 10-Things We Said Today
DR9 -0.10 dB -10.46 dB 2:17 11-When I Get Home
DR9 -0.17 dB -10.54 dB 2:35 12-You Can't Do That
DR10 -0.17 dB -11.36 dB 2:22 13-I'll Be Back
––––––––––––––––––––––––––––––––––––––––

Number of tracks: 13
Official DR value: DR9

Samplerate: 44100 Hz
Channels: 2
Bits per sample: 24
Bitrate: 1867 kbps
Codec: FLAC
================================================================================



The Beatles - Stereo Box Set (2009) [USB Limited Edition 24 bit/44,1 kHz] RE-UP

The Beatles - Beatles For Sale (1964/2009)
FLAC (tracks) 24 bit/44,1 kHz | Time - 33:44 minutes | 476 MB

Tracklist:

01 - No Reply
02 - I'm A Loser
03 - Baby's In Black
04 - Rock And Roll Music
05 - I'll Follow The Sun
06 - Mr. Moonlight
07 - Kansas City : Hey-Hey-Hey-Hey!
08 - Eight Days A Week
09 - Words Of Love
10 - Honey Don't
11 - Every Little Thing
12 - I Don't Want To Spoil The Party
13 - What You're Doing
14 - Everybody's Trying To Be My Baby

Analyzed: The Beatles / Beatles For Sale (Stereo Remaster 2009)
––––––––––––––––––––––––––––––––––––––––

DR Peak RMS Duration Track
––––––––––––––––––––––––––––––––––––––––
DR11 -0.17 dB -12.23 dB 2:15 01-No Reply
DR10 -0.16 dB -11.59 dB 2:30 02-I'm A Loser
DR9 -0.14 dB -10.47 dB 2:05 03-Baby's In Black
DR9 -0.11 dB -9.68 dB 2:31 04-Rock And Roll Music
DR10 -0.17 dB -11.98 dB 1:49 05-I'll Follow The Sun
DR10 -0.18 dB -12.29 dB 2:39 06-Mr. Moonlight
DR8 -0.11 dB -9.58 dB 2:38 07-Kansas City : Hey-Hey-Hey-Hey!
DR10 -0.16 dB -11.62 dB 2:44 08-Eight Days A Week
DR10 -0.17 dB -12.72 dB 2:04 09-Words Of Love
DR12 -0.17 dB -13.52 dB 2:57 10-Honey Don't
DR10 -0.17 dB -12.04 dB 2:04 11-Every Little Thing
DR9 -0.15 dB -10.32 dB 2:34 12-I Don't Want To Spoil The Party
DR10 -0.09 dB -10.95 dB 2:30 13-What You're Doing
DR9 -0.09 dB -10.48 dB 2:24 14-Everybody's Trying To Be My Baby
––––––––––––––––––––––––––––––––––––––––

Number of tracks: 14
Official DR value: DR10

Samplerate: 44100 Hz
Channels: 2
Bits per sample: 24
Bitrate: 1982 kbps
Codec: FLAC
================================================================================



The Beatles - Stereo Box Set (2009) [USB Limited Edition 24 bit/44,1 kHz] RE-UP

The Beatles - Help! (1965/2009)
FLAC (tracks) 24 bit/44,1 kHz | Time - 33:52 minutes | 471 MB

Tracklist:

01 - Help!
02 - The Night Before
03 - You've Got To Hide Your Love Away
04 - I Need You
05 - Another Girl
06 - You're Going To Lose That Girl
07 - Ticket to Ride
08 - Act Naturally
09 - It's Only Love
10 - You Like Me Too Much
11 - Tell Me What You See
12 - I've Just Seen a Face
13 - Yesterday
14 - Dizzy Miss Lizzy

Analyzed: The Beatles / Help! (Stereo Remaster 2009)
––––––––––––––––––––––––––––––––––––––––

DR Peak RMS Duration Track
––––––––––––––––––––––––––––––––––––––––
DR10 -0.17 dB -10.98 dB 2:19 01-Help!
DR9 -0.16 dB -9.94 dB 2:35 02-The Night Before
DR10 -0.17 dB -11.30 dB 2:09 03-You've Got To Hide Your Love Away
DR10 -0.17 dB -11.06 dB 2:29 04-I Need You
DR10 -0.17 dB -10.60 dB 2:05 05-Another Girl
DR9 -0.17 dB -10.46 dB 2:19 06-You're Going To Lose That Girl
DR9 -0.14 dB -10.61 dB 3:10 07-Ticket to Ride
DR12 -0.15 dB -12.99 dB 2:30 08-Act Naturally
DR9 -0.12 dB -11.13 dB 1:56 09-It's Only Love
DR9 -0.17 dB -10.64 dB 2:37 10-You Like Me Too Much
DR10 -0.16 dB -11.26 dB 2:38 11-Tell Me What You See
DR9 -0.12 dB -10.71 dB 2:05 12-I've Just Seen a Face
DR10 -0.17 dB -12.67 dB 2:06 13-Yesterday
DR10 -0.16 dB -10.99 dB 2:55 14-Dizzy Miss Lizzy
––––––––––––––––––––––––––––––––––––––––

Number of tracks: 14
Official DR value: DR10

Samplerate: 44100 Hz
Channels: 2
Bits per sample: 24
Bitrate: 2044 kbps
Codec: FLAC
================================================================================



The Beatles - Stereo Box Set (2009) [USB Limited Edition 24 bit/44,1 kHz] RE-UP

The Beatles - Rubber Soul (1965/2009)
FLAC (tracks) 24 bit/44,1 kHz | Time - 35:29 minutes | 492 MB

Tracklist:

01 - Drive My Car
02 - Norwegian Wood (This Bird Has Flown)
03 - You Won't See Me
04 - Nowhere Man
05 - Think For Yourself
06 - The Word
07 - Michelle
08 - What Goes On
09 - Girl
10 - I'm Looking Through You
11 - In My Life
12 - Wait
13 - If I Needed Someone
14 - Run For Your Life

Analyzed: The Beatles / Rubber Soul (Stereo Remaster 2009)
––––––––––––––––––––––––––––––––––––––––

DR Peak RMS Duration Track
––––––––––––––––––––––––––––––––––––––––
DR10 -0.15 dB -11.11 dB 2:28 01-Drive My Car
DR11 -0.14 dB -13.03 dB 2:05 02-Norwegian Wood (This Bird Has Flown)
DR10 -0.14 dB -11.08 dB 3:20 03-You Won't See Me
DR10 -0.17 dB -11.28 dB 2:44 04-Nowhere Man
DR10 -0.09 dB -11.34 dB 2:19 05-Think For Yourself
DR10 -0.16 dB -11.78 dB 2:43 06-The Word
DR11 -0.17 dB -12.82 dB 2:42 07-Michelle
DR11 -0.12 dB -12.51 dB 2:49 08-What Goes On
DR12 -0.17 dB -14.10 dB 2:32 09-Girl
DR11 -0.14 dB -13.29 dB 2:26 10-I'm Looking Through You
DR11 -0.11 dB -13.09 dB 2:26 11-In My Life
DR11 -0.17 dB -12.66 dB 2:15 12-Wait
DR10 -0.11 dB -11.95 dB 2:22 13-If I Needed Someone
DR10 -0.12 dB -11.80 dB 2:19 14-Run For Your Life
––––––––––––––––––––––––––––––––––––––––

Number of tracks: 14
Official DR value: DR11

Samplerate: 44100 Hz
Channels: 2
Bits per sample: 24
Bitrate: 1926 kbps
Codec: FLAC
================================================================================



The Beatles - Stereo Box Set (2009) [USB Limited Edition 24 bit/44,1 kHz] RE-UP

The Beatles - Revolver (1966/2009)
FLAC (tracks) 24 bit/44,1 kHz | Time - 34:43 minutes | 477 MB

Tracklist:

01 - Taxman
02 - Eleanor Rigby
03 - I'm Only Sleeping
04 - Love You To
05 - Here, There And Everywhere
06 - Yellow Submarine
07 - She Said She Said
08 - Good Day Sunshine
09 - And Your Bird Can Sing
10 - For No One
11 - Doctor Robert
12 - I Want To Tell You
13 - Got To Get You Into My Life
14 - Tomorrow Never Knows

Analyzed: The Beatles / Revolver (Stereo Remaster 2009)
––––––––––––––––––––––––––––––––––––––––

DR Peak RMS Duration Track
––––––––––––––––––––––––––––––––––––––––
DR9 -0.16 dB -10.99 dB 2:38 01-Taxman
DR9 -0.17 dB -11.64 dB 2:07 02-Eleanor Rigby
DR10 -0.17 dB -12.54 dB 3:00 03-I'm Only Sleeping
DR10 -0.17 dB -12.40 dB 3:00 04-Love You To
DR9 -0.17 dB -11.26 dB 2:25 05-Here, There And Everywhere
DR9 -0.12 dB -11.95 dB 2:39 06-Yellow Submarine
DR9 -0.17 dB -10.44 dB 2:36 07-She Said She Said
DR8 -0.16 dB -10.07 dB 2:09 08-Good Day Sunshine
DR8 -0.17 dB -9.56 dB 2:00 09-And Your Bird Can Sing
DR9 -0.17 dB -11.61 dB 2:00 10-For No One
DR9 -0.17 dB -10.87 dB 2:14 11-Doctor Robert
DR9 -0.17 dB -11.39 dB 2:28 12-I Want To Tell You
DR8 -0.17 dB -9.47 dB 2:29 13-Got To Get You Into My Life
DR8 -0.17 dB -10.06 dB 2:58 14-Tomorrow Never Knows
––––––––––––––––––––––––––––––––––––––––

Number of tracks: 14
Official DR value: DR9

Samplerate: 44100 Hz
Channels: 2
Bits per sample: 24
Bitrate: 2060 kbps
Codec: FLAC
================================================================================



The Beatles - Stereo Box Set (2009) [USB Limited Edition 24 bit/44,1 kHz] RE-UP

The Beatles - Sgt. Pepper's Lonely Hearts Club Band (1967/2009)
FLAC (tracks) 24 bit/44,1 kHz | Time - 39:52 minutes | 528 MB

Tracklist:

01 - Sgt. Pepper's Lonely Hearts Club Band
02 - With A Little Help From My Friends
03 - Lucy In The Sky With Diamonds
04 - Getting Better
05 - Fixing A Hole
06 - She's Leaving Home
07 - Being For The Benefit Of Mr Kite
08 - Within You Without You
09 - When I'm Sixty Four
10 - Lovely Rita
11 - Good Morning Good Morning
12 - Sgt. Pepper's Lonely Hearts Club Band (Reprise)
13 - A Day In The Life

Analyzed: The Beatles / Sgt. Pepper's Lonely Hearts Club Band (Stereo Remaster 2009)
––––––––––––––––––––––––––––––––––––––––

DR Peak RMS Duration Track
––––––––––––––––––––––––––––––––––––––––
DR8 -0.15 dB -10.72 dB 2:02 01-Sgt. Pepper's Lonely Hearts Club Band
DR10 -0.17 dB -12.78 dB 2:44 02-With A Little Help From My Friends
DR10 -0.17 dB -13.05 dB 3:28 03-Lucy In The Sky With Diamonds
DR10 -0.17 dB -11.12 dB 2:48 04-Getting Better
DR10 -0.12 dB -12.14 dB 2:37 05-Fixing A Hole
DR10 -1.28 dB -13.17 dB 3:35 06-She's Leaving Home
DR9 -0.16 dB -11.25 dB 2:38 07-Being For The Benefit Of Mr Kite
DR10 -0.08 dB -13.14 dB 5:05 08-Within You Without You
DR11 -0.10 dB -12.48 dB 2:38 09-When I'm Sixty Four
DR10 -0.17 dB -12.10 dB 2:42 10-Lovely Rita
DR9 -0.16 dB -11.43 dB 2:41 11-Good Morning Good Morning
DR10 -0.16 dB -12.07 dB 1:19 12-Sgt. Pepper's Lonely Hearts Club Band (Reprise)
DR11 -0.17 dB -14.50 dB 5:35 13-A Day In The Life
––––––––––––––––––––––––––––––––––––––––

Number of tracks: 13
Official DR value: DR10

Samplerate: 44100 Hz
Channels: 2
Bits per sample: 24
Bitrate: 1595 kbps
Codec: FLAC
================================================================================



The Beatles - Stereo Box Set (2009) [USB Limited Edition 24 bit/44,1 kHz] RE-UP

The Beatles - Magical Mystery Tour (1967/2009)
FLAC (tracks) 24 bit/44,1 kHz | Time - 36:30 minutes | 479 MB

Tracklist:

01 - Magical Mystery Tour
02 - The Fool On The Hill
03 - Flying
04 - Blue Jay Way
05 - Your Mother Should Know
06 - I Am The Walrus
07 - Hello, Goodbye
08 - Strawberry Fields Forever
09 - Penny Lane
10 - Baby You're A Rich Man
11 - All You Need Is Love

Analyzed: The Beatles / Magical Mystery Tour (Stereo Remaster 2009)
––––––––––––––––––––––––––––––––––––––––

DR Peak RMS Duration Track
––––––––––––––––––––––––––––––––––––––––
DR9 -0.17 dB -11.60 dB 2:49 01-Magical Mystery Tour
DR9 -0.17 dB -12.59 dB 2:59 02-The Fool On The Hill
DR11 -0.17 dB -15.20 dB 2:16 03-Flying
DR11 -0.17 dB -13.83 dB 3:55 04-Blue Jay Way
DR9 -0.17 dB -12.05 dB 2:28 05-Your Mother Should Know
DR10 -0.17 dB -12.44 dB 4:36 06-I Am The Walrus
DR9 -0.17 dB -11.02 dB 3:29 07-Hello, Goodbye
DR10 -0.17 dB -13.75 dB 4:07 08-Strawberry Fields Forever
DR9 -0.17 dB -10.81 dB 3:01 09-Penny Lane
DR11 -0.07 dB -13.04 dB 3:01 10-Baby You're A Rich Man
DR9 -0.15 dB -11.65 dB 3:48 11-All You Need Is Love
––––––––––––––––––––––––––––––––––––––––

Number of tracks: 11
Official DR value: DR10

Samplerate: 44100 Hz
Channels: 2
Bits per sample: 24
Bitrate: 1827 kbps
Codec: FLAC
================================================================================



The Beatles - Stereo Box Set (2009) [USB Limited Edition 24 bit/44,1 kHz] RE-UP

The Beatles - White Album (1968/2009) [Double Album]
FLAC (tracks) 24 bit/44,1 kHz | Time - 93:36 minutes | 1,12 GB

Tracklist:

DISC 1:
01 - Back In The U.S.S.R.
02 - Dear Prudence
03 - Glass Onion
04 - Ob-La-Di, Ob-La-Da
05 - Wild Honey Pie
06 - The Continuing Story Of Bungalow Bill
07 - While My Guitar Gently Weeps
08 - Happiness Is A Warm Gun
09 - Martha My Dear
10 - I'm So Tired
11 - Blackbird
12 - Piggies
13 - Rocky Racoon
14 - Don't Pass Me By
15 - Why Don't We Do It In The Road?
16 - I Will
17 - Julia

Analyzed: The Beatles / The White Album CD1 (Stereo Remaster 2009)
––––––––––––––––––––––––––––––––––––––––

DR Peak RMS Duration Track
––––––––––––––––––––––––––––––––––––––––
DR9 -0.17 dB -10.39 dB 2:42 01-Back In The U.S.S.R.
DR10 -0.17 dB -12.67 dB 3:56 02-Dear Prudence
DR9 -0.13 dB -11.43 dB 2:18 03-Glass Onion
DR10 -0.17 dB -10.97 dB 3:09 04-Ob-La-Di, Ob-La-Da
DR11 -0.17 dB -15.15 dB 0:53 05-Wild Honey Pie
DR10 -0.12 dB -11.35 dB 3:14 06-The Continuing Story Of Bungalow Bill
DR9 -0.08 dB -10.81 dB 4:45 07-While My Guitar Gently Weeps
DR10 -0.16 dB -12.21 dB 2:45 08-Happiness Is A Warm Gun
DR10 -0.17 dB -13.35 dB 2:29 09-Martha My Dear
DR10 -0.13 dB -11.93 dB 2:03 10-I'm So Tired
DR12 -0.17 dB -15.04 dB 2:18 11-Blackbird
DR9 -0.09 dB -11.80 dB 2:04 12-Piggies
DR11 -0.17 dB -14.31 dB 3:33 13-Rocky Racoon
DR10 -0.15 dB -12.32 dB 3:50 14-Don't Pass Me By
DR10 -0.18 dB -12.54 dB 1:41 15-Why Don't We Do It In The Road?
DR10 -0.17 dB -11.12 dB 1:46 16-I Will
DR10 -0.18 dB -13.10 dB 2:55 17-Julia
––––––––––––––––––––––––––––––––––––––––

Number of tracks: 17
Official DR value: DR10

Samplerate: 44100 Hz
Channels: 2
Bits per sample: 24
Bitrate: 1509 kbps
Codec: FLAC
================================================================================



DISC 2:
01 - Birthday
02 - Yer Blues
03 - Mother Nature's Son
04 - Everybody's Got Something To Hide Except Me And My Monkey
05 - Sexy Sadie
06 - Helter Skelter
07 - Long, Long, Long
08 - Revolution 1
09 - Honey Pie
10 - Savoy Truffle
11 - Cry Baby Cry
12 - Revolution 9
13 - Good Night

Analyzed: The Beatles / The White Album CD2 (Stereo Remaster 2009)
––––––––––––––––––––––––––––––––––––––––

DR Peak RMS Duration Track
––––––––––––––––––––––––––––––––––––––––
DR9 -0.14 dB -9.83 dB 2:42 01-Birthday
DR10 -0.17 dB -12.62 dB 4:00 02-Yer Blues
DR12 -0.17 dB -16.14 dB 2:48 03-Mother Nature's Son
DR9 -0.17 dB -10.88 dB 2:25 04-Everybody's Got Something To Hide Except Me And My Monkey
DR11 -0.18 dB -12.52 dB 3:15 05-Sexy Sadie
DR9 -0.12 dB -10.37 dB 4:30 06-Helter Skelter
DR10 -0.14 dB -14.00 dB 3:06 07-Long, Long, Long
DR9 -0.59 dB -12.19 dB 4:16 08-Revolution 1
DR11 -1.78 dB -15.82 dB 2:41 09-Honey Pie
DR10 -0.11 dB -11.66 dB 2:54 10-Savoy Truffle
DR10 -0.09 dB -13.09 dB 3:02 11-Cry Baby Cry
DR10 -1.28 dB -16.49 dB 8:22 12-Revolution 9
DR9 -1.72 dB -14.04 dB 3:12 13-Good Night
––––––––––––––––––––––––––––––––––––––––

Number of tracks: 13
Official DR value: DR10

Samplerate: 44100 Hz
Channels: 2
Bits per sample: 24
Bitrate: 1464 kbps
Codec: FLAC
================================================================================



The Beatles - Stereo Box Set (2009) [USB Limited Edition 24 bit/44,1 kHz] RE-UP

The Beatles - Yellow Submarine (1969/2009)
FLAC (tracks) 24 bit/44,1 kHz | Time - 39:40 minutes | 431 MB

Tracklist:

01 - Yellow Submarine
02 - Only A Northern Song
03 - All Together Now
04 - Hey Bulldog
05 - It's All Too Much
06 - All You Need Is Love
07 - Pepperland
08 - Sea Of Time
09 - Sea Of Holes
10 - Sea Of Monsters
11 - March Of The Meanies
12 - Pepperland Laid Waist
13 - Yellow Submarine In Pepperland

Analyzed: The Beatles / Yellow Submarine (Stereo Remaster 2009)
––––––––––––––––––––––––––––––––––––––––

DR Peak RMS Duration Track
––––––––––––––––––––––––––––––––––––––––
DR10 -0.08 dB -12.13 dB 2:39 01-Yellow Submarine
DR11 -0.17 dB -12.37 dB 3:24 02-Only A Northern Song
DR9 -0.17 dB -12.23 dB 2:11 03-All Together Now
DR9 -0.17 dB -11.11 dB 3:11 04-Hey Bulldog
DR10 -0.17 dB -11.63 dB 6:25 05-It's All Too Much
DR9 -0.17 dB -11.95 dB 3:51 06-All You Need Is Love
DR11 -0.17 dB -14.67 dB 2:21 07-Pepperland
DR12 -0.44 dB -19.81 dB 3:00 08-Sea Of Time
DR12 -0.94 dB -19.00 dB 2:17 09-Sea Of Holes
DR12 -0.18 dB -16.79 dB 3:37 10-Sea Of Monsters
DR10 -0.49 dB -15.22 dB 2:19 11-March Of The Meanies
DR16 -0.17 dB -21.74 dB 2:13 12-Pepperland Laid Waist
DR11 -0.17 dB -15.94 dB 2:12 13-Yellow Submarine In Pepperland
––––––––––––––––––––––––––––––––––––––––

Number of tracks: 13
Official DR value: DR11

Samplerate: 44100 Hz
Channels: 2
Bits per sample: 24
Bitrate: 1448 kbps
Codec: FLAC
================================================================================



The Beatles - Stereo Box Set (2009) [USB Limited Edition 24 bit/44,1 kHz] RE-UP

The Beatles - Abbey Road (1969/2009)
FLAC (tracks) 24 bit/44,1 kHz | Time - 47:27 minutes | 549 MB

Tracklist:

01 - Come Together
02 - Something
03 - Maxwell's Silver Hammer
04 - Oh! Darling
05 - Octopus's Garden
06 - I Want You (She's So Heavy)
07 - Here Comes The Sun
08 - Because
09 - You Never Give Me Your Money
10 - Sun King
11 - Mean Mr. Mustard
12 - Polythene Pam
13 - She Came In Through The Bathroom Window
14 - Golden Slumbers
15 - Carry That Weight
16 - The End
17 - Her Majesty

Analyzed: The Beatles / Abbey Road (Stereo Remaster 2009)
––––––––––––––––––––––––––––––––––––––––

DR Peak RMS Duration Track
––––––––––––––––––––––––––––––––––––––––
DR9 -0.17 dB -11.24 dB 4:19 01-Come Together
DR9 -0.17 dB -12.51 dB 3:02 02-Something
DR11 -0.17 dB -13.42 dB 3:28 03-Maxwell's Silver Hammer
DR10 -0.09 dB -11.39 dB 3:27 04-Oh! Darling
DR11 -0.17 dB -12.72 dB 2:51 05-Octopus's Garden
DR9 -0.14 dB -11.05 dB 7:47 06-I Want You (She's So Heavy)
DR9 -0.17 dB -11.17 dB 3:06 07-Here Comes The Sun
DR10 -0.95 dB -14.10 dB 2:46 08-Because
DR9 -0.17 dB -13.10 dB 4:03 09-You Never Give Me Your Money
DR10 -0.35 dB -13.16 dB 2:26 10-Sun King
DR10 -0.16 dB -10.82 dB 1:07 11-Mean Mr. Mustard
DR9 -0.17 dB -10.31 dB 1:13 12-Polythene Pam
DR9 -0.17 dB -10.35 dB 1:59 13-She Came In Through The Bathroom Window
DR10 -0.17 dB -13.02 dB 1:32 14-Golden Slumbers
DR9 -0.17 dB -10.50 dB 1:36 15-Carry That Weight
DR9 -0.04 dB -12.14 dB 2:22 16-The End
DR11 -0.17 dB -18.99 dB 0:24 17-Her Majesty
––––––––––––––––––––––––––––––––––––––––

Number of tracks: 17
Official DR value: DR10

Samplerate: 44100 Hz
Channels: 2
Bits per sample: 24
Bitrate: 1376 kbps
Codec: FLAC
================================================================================



The Beatles - Stereo Box Set (2009) [USB Limited Edition 24 bit/44,1 kHz] RE-UP

The Beatles - Let It Be (1970/2009)
FLAC (tracks) 24 bit/44,1 kHz | Time - 35:07 minutes | 402 MB

Tracklist:

01 - Two Of Us
02 - Dig A Pony
03 - Across The Universe
04 - I Me Mine
05 - Dig It
06 - Let It Be
07 - Maggie Mae
08 - I've Got A Feeling
09 - One After 909
10 - The Long And Winding Road
11 - For You Blue
12 - Get Back

Analyzed: The Beatles / Let It Be (Stereo Remaster 2009)
––––––––––––––––––––––––––––––––––––––––

DR Peak RMS Duration Track
––––––––––––––––––––––––––––––––––––––––
DR11 -0.17 dB -13.30 dB 3:36 01-Two Of Us
DR9 -0.14 dB -11.26 dB 3:55 02-Dig A Pony
DR10 -1.82 dB -13.47 dB 3:48 03-Across The Universe
DR9 -0.10 dB -10.58 dB 2:26 04-I Me Mine
DR12 -0.17 dB -15.45 dB 0:50 05-Dig It
DR9 -0.17 dB -12.05 dB 4:03 06-Let It Be
DR10 -0.64 dB -14.56 dB 0:40 07-Maggie Mae
DR9 -0.17 dB -11.15 dB 3:38 08-I've Got A Feeling
DR8 -0.17 dB -9.84 dB 2:54 09-One After 909
DR9 -0.17 dB -11.73 dB 3:38 10-The Long And Winding Road
DR10 -0.15 dB -12.63 dB 2:32 11-For You Blue
DR9 -0.17 dB -11.67 dB 3:07 12-Get Back
––––––––––––––––––––––––––––––––––––––––

Number of tracks: 12
Official DR value: DR10

Samplerate: 44100 Hz
Channels: 2
Bits per sample: 24
Bitrate: 1458 kbps
Codec: FLAC
================================================================================



The Beatles - Stereo Box Set (2009) [USB Limited Edition 24 bit/44,1 kHz] RE-UP

The Beatles - Past Masters Vol. 1 & 2 (1988/2009) [Double Album]
FLAC (tracks) 24 bit/44,1 kHz | Time - 93:22 minutes | 1,02 GB

Tracklist:

VOLUME 1:
01 - Love Me Do (Single Version)
02 - From Me To You
03 - Thank You Girl
04 - She Loves You
05 - I'll Get You
06 - I Want To Hold Your Hand
07 - This Boy
08 - Komm, Gib Mir Deine Hand (I Want To Hold Your Hand)
09 - Sie Liebt Dich (She Loves You)
10 - Long Tall Sally
11 - I Call Your Name
12 - Slow Down
13 - Matchbox
14 - I Feel Fine
15 - She's a Woman
16 - Bad Boy
17 - Yes It Is
18 - I'm Down

Analyzed: The Beatles / Past Masters Vol.1 (Stereo Remaster 2009)
––––––––––––––––––––––––––––––––––––––––

DR Peak RMS Duration Track
––––––––––––––––––––––––––––––––––––––––
DR10 -0.16 dB -11.09 dB 2:25 01-Love Me Do (Single Version)
DR10 -0.15 dB -12.62 dB 1:57 02-From Me To You
DR10 -0.16 dB -12.86 dB 2:04 03-Thank You Girl
DR8 -0.85 dB -10.30 dB 2:21 04-She Loves You
DR9 -0.17 dB -10.67 dB 2:06 05-I'll Get You
DR8 -0.17 dB -10.33 dB 2:27 06-I Want To Hold Your Hand
DR10 -0.18 dB -12.27 dB 2:16 07-This Boy
DR10 -0.17 dB -11.81 dB 2:26 08-Komm, Gib Mir Deine Hand (I Want To Hold Your Hand)
DR10 -0.14 dB -12.04 dB 2:19 09-Sie Liebt Dich (She Loves You)
DR9 -0.17 dB -10.45 dB 2:03 10-Long Tall Sally
DR10 -0.17 dB -12.35 dB 2:09 11-I Call Your Name
DR10 -0.17 dB -12.08 dB 2:57 12-Slow Down
DR10 -0.17 dB -11.97 dB 1:59 13-Matchbox
DR10 -0.17 dB -11.46 dB 2:20 14-I Feel Fine
DR10 -0.09 dB -11.71 dB 3:03 15-She's a Woman
DR10 -0.17 dB -12.55 dB 2:21 16-Bad Boy
DR10 -0.17 dB -12.12 dB 2:42 17-Yes It Is
DR10 -0.08 dB -11.76 dB 2:32 18-I'm Down
––––––––––––––––––––––––––––––––––––––––

Number of tracks: 18
Official DR value: DR10

Samplerate: 44100 Hz
Channels: 2
Bits per sample: 24
Bitrate: 1557 kbps
Codec: FLAC
================================================================================



VOLUME 2:
01 - Day Tripper
02 - We Can Work It Out
03 - Paperback Writer
04 - Rain
05 - Lady Madonna
06 - The Inner Light
07 - Hey Jude
08 - Revolution
09 - Get Back
10 - Don't Let Me Down
11 - The Ballad Of John And Yoko
12 - Old Brown Shoe
13 - Across The Universe
14 - Let It Be
15 - You Know My Name (Look Up The Number)

Analyzed: The Beatles / Past Masters (Stereo Remaster 2009)
––––––––––––––––––––––––––––––––––––––––

DR Peak RMS Duration Track
––––––––––––––––––––––––––––––––––––––––
DR10 -0.17 dB -12.76 dB 2:48 01-Day Tripper
DR11 -0.17 dB -12.04 dB 2:15 02-We Can Work It Out
DR9 -0.17 dB -11.05 dB 2:19 03-Paperback Writer
DR8 -0.61 dB -10.97 dB 3:01 04-Rain
DR9 -0.17 dB -10.74 dB 2:18 05-Lady Madonna
DR11 -1.65 dB -14.73 dB 2:36 06-The Inner Light
DR11 -0.10 dB -13.45 dB 7:10 07-Hey Jude
DR10 -0.17 dB -12.18 dB 3:25 08-Revolution
DR9 -0.15 dB -10.47 dB 3:11 09-Get Back
DR9 -0.17 dB -10.87 dB 3:36 10-Don't Let Me Down
DR10 -0.17 dB -11.16 dB 3:00 11-The Ballad Of John And Yoko
DR10 -0.17 dB -11.84 dB 3:19 12-Old Brown Shoe
DR10 -1.20 dB -13.47 dB 3:49 13-Across The Universe
DR9 -0.17 dB -12.62 dB 3:52 14-Let It Be
DR12 -0.21 dB -14.22 dB 4:18 15-You Know My Name (Look Up The Number)
––––––––––––––––––––––––––––––––––––––––

Number of tracks: 15
Official DR value: DR10

Samplerate: 44100 Hz
Channels: 2
Bits per sample: 24
Bitrate: 776 kbps
Codec: FLAC
================================================================================


Thanks to the Original customer!