Bee Gees - One Night Only (1998/2013) [Blu-Ray to FLAC 24bit/96kHz]

Posted By: HDV
Bee Gees - One Night Only (1998/2013) [Blu-Ray to FLAC 24bit/96kHz]

Bee Gees - One Night Only (1998/2013)
FLAC(Tracks) 24 bit/96 kHz | Time - 110:35 minutes | 2,44 MB
Recorded on November 14, 1997 at MGM Grand, Las Vegas, Nevada
Source: Blu-Ray (Eagle Rock Entertainment - LPCM 24/96 track) | Cover sleeve

Brothers Barry, Maurice, and Robin Gibb made musical history for close to four decades with their magnificent vocal harmonies and ever-evolving styles. Masters of orchestral pop, blue-eyed soul and R&B, dazzling dance grooves, and disco fever alike—as well as uniquely blended hybrids of all these genres and more—the Bee Gees delivered album classics and top chart hits throughout their enduring career. On this newly remastered edition, the amazing genetics of their harmonies shine, as does the ongoing artistic evolution that’s made them one of contemporary music’s most successful and legendary acts.

On November 14, 1997, the Bee Gees reunited for a concert at the MGM Grand in Las Vegas. This was the Gibb brothers' first show in ten years, and the concert sold out in a hurry. The burning question was whether or not the chemistry would still be there, and thankfully, it was. After being aired on HBO on Valentine's Day 1998, the Vegas performance found its way onto CD when One Night Only was released in the fall of 1998. the Bee Gees generally sound inspired during their performance, which ranges from gems from their late-'70s disco period (including "Stayin' Alive," "You Should Be Dancin'," "Nights on Broadway," and "Tragedy") to early hits like "New York Mining Disaster 1941," "How Can You Mend a Broken Heart," and "Massachusetts." While their band could have been a lot grittier and less precise and clean-sounding – especially on the funkier material – the Bee Gees distinctive vocals aren't anything to complain about. Although not perfect, One Night Only is a release that Bee Gees enthusiasts will definitely want.

Tracklist:

01 - You Should Be Dancing
02 - Alone
03 - Massachusetts
04 - To Love Somebody
05 - I've Gotta Get A Message To You
06 - Words
07 - Closer Than Close
08 - Islands In The Stream
09 - One
10 - Our Love (Don't Throw It All Away)
11 - Night Fever / More Than A Woman
12 - Still Waters
13 - Lonely Days
14 - Morning Of My Life
15 - New York Mining Disaster 1941
16 - Too Much Heaven
17 - I Can't See Nobody
18 - Run To Me
19 - And The Sun Will Shine
20 - Nights On Broadway
21 - How Can You Mend A Broken Heart
22 - Heartbreaker
23 - Guilty
24 - Immortality
25 - Tragedy
26 - I Started A Joke
27 - Grease
28 - Jive Talkin'
29 - How Deep Is Your Love
30 - Stayin' Alive
31 - You Should Be Dancing

Personnel:
Barry Gibb – guitar, vocals
Maurice Gibb – keyboards, guitar, vocals
Robin Gibb – vocals

Additional personnel:
Alan Kendall – lead guitar
Stephen Gibb – lead guitar
Ben Stivers – keyboards
Matt Bonelli – bass guitar
Steve Rucker – drums
John Merchant – off-stage keyboards
Celine Dion – vocals on "Immortality"
Andy Gibb, Frankie Valli – pre-recorded vocals on "Grease"

Analyzed: Bee Gees / One Night Only
––––––––––––––––––––––––––––––––––––––––

DR Peak RMS Duration Track
––––––––––––––––––––––––––––––––––––––––
DR6 -0.50 dB -8.20 dB 2:38 01-You Should Be Dancing
DR7 -0.50 dB -8.88 dB 3:57 02-Alone
DR10 -0.50 dB -13.04 dB 3:08 03-Massachusetts
DR8 -0.50 dB -11.52 dB 3:15 04-To Love Somebody
DR7 -0.50 dB -9.21 dB 4:11 05-I've Gotta Get A Message To You
DR8 -0.50 dB -12.63 dB 3:46 06-Words
DR8 -0.50 dB -10.67 dB 5:06 07-Closer Than Close
DR7 -0.50 dB -9.45 dB 4:00 08-Islands In The Stream
DR7 -0.50 dB -9.62 dB 5:02 09-One
DR9 -0.50 dB -12.20 dB 4:07 10-Our Love (Don't Throw It All Away)
DR8 -0.50 dB -10.39 dB 3:45 11-Night Fever / More Than A Woman
DR8 -0.50 dB -10.28 dB 3:26 12-Still Waters
DR7 -0.50 dB -10.80 dB 4:01 13-Lonely Days
DR14 -0.50 dB -18.20 dB 2:58 14-Morning Of My Life
DR12 -0.50 dB -15.80 dB 2:50 15-New York Mining Disaster 1941
DR12 -0.50 dB -15.55 dB 1:53 16-Too Much Heaven
DR11 -0.50 dB -15.29 dB 1:30 17-I Can't See Nobody
DR12 -0.50 dB -15.38 dB 1:05 18-Run To Me
DR11 -0.50 dB -15.05 dB 1:57 19-And The Sun Will Shine
DR11 -0.50 dB -15.57 dB 1:40 20-Nights On Broadway
DR11 -0.50 dB -14.53 dB 3:58 21-How Can You Mend A Broken Heart
DR13 -0.50 dB -16.29 dB 1:08 22-Heartbreaker
DR13 -0.50 dB -15.61 dB 2:42 23-Guilty
DR7 -0.50 dB -11.49 dB 5:17 24-Immortality
DR8 -0.50 dB -9.41 dB 4:46 25-Tragedy
DR12 -0.50 dB -15.14 dB 2:55 26-I Started A Joke
DR8 -0.50 dB -10.28 dB 3:23 27-Grease
DR7 -0.50 dB -9.03 dB 4:37 28-Jive Talkin'
DR11 -0.50 dB -13.28 dB 4:14 29-How Deep Is Your Love
DR8 -0.50 dB -9.11 dB 5:14 30-Stayin' Alive
DR7 -0.50 dB -8.82 dB 8:05 31-You Should Be Dancing
––––––––––––––––––––––––––––––––––––––––

Number of tracks: 31
Official DR value: DR9

Samplerate: 96000 Hz
Channels: 2
Bits per sample: 24
Bitrate: 3177 kbps
Codec: FLAC
================================================================================


All files were fully tagged.