Bert Jansch - Living In The Shadows Part Two: On The Edge Of A Dream (2017) [Official Digital Download]

Posted By: HDV
Bert Jansch - Living In The Shadows Part Two: On The Edge Of A Dream (2017) [Official Digital Download]

Bert Jansch - Living In The Shadows Part 2: On The Edge Of A Dream (2017)
FLAC (tracks) 24-bit(16-bit) /44,1 kHz | Time - 180:12 minutes | 1,15 GB
4 CD Box Set | Studio Master, Official Digital Download | Artwork: Front cover

Following on from Earth’s definitive collection of Jansch’s 1990s works "Living In The Shadows Part 2: On The Edge Of A Dream" picks up from where it left off, bringing together Bert Jansch’s final recordings, made between 2000 and 2006. This remarkable anthology documents some of Jansch’s finest work, and a man at the top of his game, some 40 years after his first release.

From the brooding resonance of Crimson Moon (where Jansch is joined by Johnny Marr, Bernard Butler and Johnny “Guitar” Hodge, as well as son Adam Jansch and Bert’s wife Loren Jansch) to the intimacy of Edge Of A Dream (Bernard Butler, Hope Sandoval, Dave Swarbrick, Ralph McTell, Johnny “Guitar” Hodge, Paul Wassif, Adam Jansch and Loren Jansch) to the wondrous new folk / trad folk harmony of Black Swan (Beth Orton, Devendra Banhart, Kevin Barker, Helena Espvall, Paul Wassif), these seemingly very different albums all speak of one thing: Bert’s natural talent for turning out extraordinary music, regardless of genre.

Disc four, The Setting Of The Sun, takes in more demos and unreleased material, with guest appearances from Gordon Giltrap and Johnny Marr adding additional delight for fans old and new. These peeks into Jansch’s recording process are nothing if not fascinating, with his home studio lending itself perfectly to any recording fancy he might arrive at.

Tracklist

DISC 1 - Crimson Moon (2000) [24-bit/44,1kHz]

01 - Caledonia
02 - Going Home
03 - Crimson Moon
04 - Downunder
05 - October Song
06 - Looking for Love
07 - Fool's Mate
08 - The River Bank
09 - Omie Wise
10 - My Donald
11 - Neptune's Daughter
12 - Singing the Blues

DISC 2 - Edge Of A Dream (2002) [16-bit/44,1kHz]

01 - On the Edge of a Dream
02 - All This Remains
03 - What is On Your Mind
04 - Sweet Death
05 - I Cannot Keep From Crying
06 - La Luna
07 - Gypsy Dave
08 - Walking This Road
09 - The Quiet Joys of Brotherhood
10 - Black Cat Blues
11 - Bright Sunny Morning

DISC 3 - The Black Swan (2006) [16-bit/44,1kHz]

01 - The Black Swan
02 - High Days
03 - When the Sun Comes Up
04 - Katie Cruel
05 - My Pocket's Empty
06 - Watch the Stars
07 - A Woman Like You
08 - The Old Triangle
09 - Bring Your Religion
10 - Texas Cowboy Blues
11 - Magdalina's Dance
12 - Hey Pretty Girl

DISC 4 - The Setting Of The Sun: Demos, Outtakes & Unreleased [16-bit/44,1kHz]

01 - Watch The Stars (Demo)
02 - It Don’t Bother Me (With Johnny Marr)
03 - On The Edge Of A Dream (Demo)
04 - Walking This Road (Demo)
05 - My Pocket’s Empty (Demo)
06 - Cocaine (With Johnny Marr)
07 - Untitled
08 - Chambertin (With Gordon Giltrap)
09 - Katie Cruel (Demo)
10 - Fool’s Mate (Demo)
11 - The Quiet Joys Of Brotherhood (Demo)

Analyzed: Bert Jansch / Living In The Shadows Part Two: On The Edge Of A Dream
––––––––––––––––––––––––––––––––––––––––

DR Peak RMS Duration Track
––––––––––––––––––––––––––––––––––––––––
DR12 -6.13 dB -21.24 dB 4:48 01-Caledonia
DR10 -3.56 dB -16.98 dB 3:14 02-Going Home
DR15 -2.98 dB -21.56 dB 5:25 03-Crimson Moon
DR17 -2.32 dB -23.24 dB 2:52 04-Downunder
DR12 -4.72 dB -20.05 dB 3:43 05-October Song
DR13 -1.18 dB -17.36 dB 4:25 06-Looking for Love
DR14 -0.72 dB -17.79 dB 7:00 07-Fool's Mate
DR14 -0.79 dB -17.83 dB 2:52 08-The River Bank
DR14 -3.41 dB -21.04 dB 4:59 09-Omie Wise
DR12 -5.15 dB -21.38 dB 4:04 10-My Donald
DR13 -8.79 dB -25.09 dB 3:20 11-Neptune's Daughter
DR14 -4.35 dB -21.78 dB 2:13 12-Singing the Blues
––––––––––––––––––––––––––––––––––––––––

Number of tracks: 12
Official DR value: DR13

Samplerate: 44100 Hz
Channels: 2
Bits per sample: 24
Bitrate: 1394 kbps
Codec: FLAC
================================================================================

––––––––––––––––––––––––––––––––––––––––
Analyzed: Bert Jansch / Living In The Shadows Part Two: On The Edge Of A Dream
––––––––––––––––––––––––––––––––––––––––

DR Peak RMS Duration Track
––––––––––––––––––––––––––––––––––––––––
DR8 -0.10 dB -10.38 dB 2:35 13-On the Edge of a Dream
DR9 -0.10 dB -12.20 dB 4:44 14-All This Remains
DR10 -0.10 dB -11.61 dB 3:26 15-What is On Your Mind
DR11 -0.10 dB -15.84 dB 3:52 16-Sweet Death
DR11 -0.10 dB -13.03 dB 4:07 17-I Cannot Keep From Crying
DR9 -0.10 dB -11.54 dB 3:15 18-La Luna
DR11 -0.36 dB -14.00 dB 2:44 19-Gypsy Dave
DR8 -0.10 dB -9.91 dB 3:16 20-Walking This Road
DR11 -0.10 dB -13.77 dB 5:31 21-The Quiet Joys of Brotherhood
DR10 -0.10 dB -12.36 dB 3:08 22-Black Cat Blues
DR9 -0.10 dB -10.66 dB 4:09 23-Bright Sunny Morning
DR9 -0.10 dB -11.57 dB 6:25 24-The Black Swan
DR9 -0.10 dB -12.67 dB 3:47 25-High Days
DR8 -0.10 dB -10.15 dB 3:54 26-When the Sun Comes Up
DR10 -0.10 dB -12.76 dB 3:00 27-Katie Cruel
DR9 -0.10 dB -12.06 dB 3:50 28-My Pocket's Empty
DR8 -0.10 dB -10.71 dB 2:55 29-Watch the Stars
DR10 -0.10 dB -12.88 dB 4:13 30-A Woman Like You
DR10 -0.10 dB -13.77 dB 4:07 31-The Old Triangle
DR8 -0.10 dB -10.39 dB 3:06 32-Bring Your Religion
DR9 -0.10 dB -10.04 dB 3:07 33-Texas Cowboy Blues
DR9 -0.10 dB -11.52 dB 3:19 34-Magdalina's Dance
DR9 -0.10 dB -11.69 dB 3:03 35-Hey Pretty Girl
DR12 -0.34 dB -17.38 dB 4:12 36-Watch The Stars (Demo)
DR13 -0.63 dB -20.02 dB 3:53 37-It Don’t Bother Me (With Johnny Marr)
DR12 -2.17 dB -17.61 dB 2:44 38-On The Edge Of A Dream (Demo)
DR13 -0.34 dB -16.19 dB 3:39 39-Walking This Road (Demo)
DR11 -0.34 dB -14.05 dB 3:43 40-My Pocket’s Empty (Demo)
DR15 -0.34 dB -19.22 dB 4:26 41-Cocaine (With Johnny Marr)
DR14 -2.09 dB -19.04 dB 5:18 42-Untitled
DR14 -2.73 dB -20.50 dB 5:17 43-Chambertin (With Gordon Giltrap)
DR12 -1.88 dB -18.04 dB 3:02 44-Katie Cruel (Demo)
DR13 -0.34 dB -17.38 dB 3:54 45-Fool’s Mate (Demo)
DR15 0.00 dB -18.44 dB 5:33 46-The Quiet Joys Of Brotherhood (Demo)
––––––––––––––––––––––––––––––––––––––––

Number of tracks: 34
Official DR value: DR11

Samplerate: 44100 Hz
Channels: 2
Bits per sample: 16
Bitrate: 523 kbps
Codec: FLAC
================================================================================


Thanks to the Original customer!