Subcategories

Big George Brock - Heavyweight Blues (2007/2013) [DSD64 + Hi-Res FLAC]

Posted By: HDV
Big George Brock - Heavyweight Blues (2007/2013) [DSD64 + Hi-Res FLAC]

Big George Brock - Heavyweight Blues (2007/2013)
DSD64 (.dsf) 1 bit/2,8 MHz | Time - 53:08 minutes | 1,41 GB
FLAC (tracks) 24-bit/88,2 kHz | Time - 53:08 minutes | 1,05 GB
Studio Master, Official Digital Download | Artwork: Digital booklet

From APO Records and Blue Heaven Studios…blues so raw and real they'll make you sore. There's no surprises here - just straight-ahead force. The songs are standards, some of 'em covered thousands of times. But NOBODY, that's a guaranteed NOBODY, comes closer to evoking the real feel of Muddy Waters or Howlin' Wolf than Big George Brock. His voice is as rich as fertile soil. But this isn't some imitation-contest record. Big George has got the goods all his own and has had 'em on display since the 1950s. He's a former Heavyweight boxer, and just like with the best of that sport, he'll gladly tell you what's coming. You still can't get out of the way.

When these takes were recorded, Brock was virtually unknown outside his hometown of St. Louis. Meanwhile, he has toured the US and has appeared at European festivals. He keeps the blues alive, the blues 1950s Chicago style. Brock doesn't write songs. But he plays Muddy's or the Wolf's tunes as if it were his own. This is great raw and staright-ahead bues, very old-fashioned. Entertaining.

Tracklist:

01 - Walking Through The Park
02 - Smokestack Lightning
03 - Tiger in Your Tank
04 - Still A Fool (Two Trains Running)
05 - Trouble No More
06 - Young Fashioned Ways
07 - I Just Want to Make Love to You
08 - Howlin' for my Darlin'
09 - Tin Pan Alley
10 - Who's Been Talking
11 - Evil
12 - Can't Hold On Much Longer
13 - You Don't Have to Go
14 - You Shook Me (Bonus Track)

Produced by Chad Kassem. Engineered by Katsuhiko Naito.
Recorded at Blue Heaven Studios, Salina, Kansas.
Mastered by Kevin Gray at AcousTech Mastering.

Musicians:
Big George Brock - vocals, harmonica
Riley Coatie Sr. - guitar
Jimmy D. Lane - guitar on "13"
Tekora Coatie - bass
Latasha Coatie - keyboards
Riley Coatie Jr. - drums

A flat and direct transfer to DSD from the original analog tape master with all the dynamics and the tone of the original mixes.

Analyzed: Big George Brock / Heavyweight Blues
––––––––––––––––––––––––––––––––––––––––

DR Peak RMS Duration Track
––––––––––––––––––––––––––––––––––––––––
DR13 -5.97 dB -22.12 dB 2:58 01-Walking Through The Park
DR12 -5.86 dB -21.17 dB 3:52 02-Smokestack Lightning
DR11 -4.64 dB -19.48 dB 3:49 03-Tiger in Your Tank
DR12 -5.04 dB -20.56 dB 5:08 04-Still A Fool (Two Trains Running)
DR12 -6.54 dB -21.54 dB 4:09 05-Trouble No More
DR13 -5.44 dB -21.28 dB 4:30 06-Young Fashioned Ways
DR13 -5.32 dB -20.67 dB 4:12 07-I Just Want to Make Love to You
DR13 -6.48 dB -22.05 dB 3:56 08-Howlin' for my Darlin'
DR13 -6.32 dB -21.74 dB 3:28 09-Tin Pan Alley
DR12 -6.97 dB -22.40 dB 2:41 10-Who's Been Talking
DR13 -6.14 dB -22.23 dB 3:53 11-Evil
DR13 -6.03 dB -22.11 dB 3:40 12-Can't Hold On Much Longer
DR13 -8.22 dB -26.14 dB 3:37 13-You Don't Have to Go
DR12 -6.14 dB -21.56 dB 3:15 14-You Shook Me (Bonus Track)
––––––––––––––––––––––––––––––––––––––––

Number of tracks: 14
Official DR value: DR13

Samplerate: 2822400 Hz / PCM Samplerate: 88200 Hz
Channels: 2
Bits per sample: 1
Bitrate: 5645 kbps
Codec: DSD64
================================================================================


Analyzed: Big George Brock / Heavyweight Blues
––––––––––––––––––––––––––––––––––––––––

DR Peak RMS Duration Track
––––––––––––––––––––––––––––––––––––––––
DR13 -0.97 dB -17.12 dB 2:58 01-Walking Through The Park
DR12 -0.86 dB -16.17 dB 3:52 02-Smokestack Lightning
DR11 -0.64 dB -15.48 dB 3:49 03-Tiger in Your Tank
DR12 -0.04 dB -15.56 dB 5:08 04-Still A Fool (Two Trains Running)
DR12 -0.54 dB -15.54 dB 4:09 05-Trouble No More
DR13 -0.44 dB -16.28 dB 4:30 06-Young Fashioned Ways
DR13 -0.32 dB -15.67 dB 4:12 07-I Just Want to Make Love to You
DR13 -0.48 dB -16.05 dB 3:56 08-Howlin' for my Darlin'
DR13 -0.32 dB -15.74 dB 3:28 09-Tin Pan Alley
DR12 -0.97 dB -16.40 dB 2:41 10-Who's Been Talking
DR13 -0.14 dB -16.23 dB 3:53 11-Evil
DR13 -0.03 dB -16.11 dB 3:40 12-Can't Hold On Much Longer
DR13 -2.22 dB -20.14 dB 3:37 13-You Don't Have to Go
DR12 -0.14 dB -15.56 dB 3:15 14-You Shook Me (Bonus Track)
––––––––––––––––––––––––––––––––––––––––

Number of tracks: 14
Official DR value: DR13

Samplerate: 88200 Hz
Channels: 2
Bits per sample: 24
Bitrate: 2722 kbps
Codec: FLAC
================================================================================


Thanks to the Original customer!