Bill Evans - Affinity (1978/2011) [Official Digital Download 24bit/192kHz] RE-UP

Posted By: HDV
Bill Evans - Affinity (1978/2011) [Official Digital Download 24bit/192kHz] RE-UP

Bill Evans - Affinity (1978/2011)
FLAC (tracks) 24 bit/192 kHz | Time - 49:26 minutes | 1,73 GB
Studio Master, Official Digital Download | Artwork: Front cover

This remarkable audiophile recording pairs together two of jazz’s most legendary players, pianist Bill Evans and harmonica player Toots Thielemans. The duo’s luscious and harmonious performance can be enjoyed on breath-taking covers of Paul Simon’s “I Do It For Your Love” and Michel Legrand’s “The Other Side of Tonight,” as well as on two jazz standards “Body & Soul” and “Blue and Green.” The album would be the final studio recording to feature Evans on electric piano and is a must-have album.

Pianist Bill Evans (who doubles on electric piano on this album for the final time in the recording studio) welcomes guest harmonica player Toots Thielemans and Larry Schneider (on tenor, soprano and alto flute) to an outing with bassist Marc Johnson (making his recording debut with Evans) and drummer Eliot Zigmund. The material contains some surprises (including Paul Simon's "I Do It for Your Love" and Michel Legrand's "The Other Side of Tonight") and only two jazz standards ("Body & Soul" and "Blue and Green") with the latter being the only Evans composition. Excellent if not essential music that Evans generally uplifts.

Tracklist:

01 - I Do It For Your Love
02 - Sno' Peas
03 - This Is All I Ask
04 - The Days Of Wine And Roses
05 - Jesus' Last Ballad
06 - Tomato Kiss
07 - The Other Side Of Midnight (Noelle's Theme)
08 - Blue And Green
09 - Body & Soul

Analyzed: Bill Evans / Affinity
––––––––––––––––––––––––––––––––––––––––

DR Peak RMS Duration Track
––––––––––––––––––––––––––––––––––––––––
DR11 -1.30 dB -16.55 dB 7:20 01-I Do It For Your Love
DR11 -1.56 dB -14.60 dB 5:56 02-Sno' Peas
DR10 -3.09 dB -17.23 dB 4:17 03-This Is All I Ask
DR12 0.00 dB -15.30 dB 6:44 04-The Days Of Wine And Roses
DR11 -1.14 dB -17.93 dB 5:54 05-Jesus' Last Ballad
DR11 0.00 dB -13.61 dB 5:22 06-Tomato Kiss
DR11 -3.70 dB -18.60 dB 3:21 07-The Other Side Of Midnight (Noelle's Theme)
DR13 -0.09 dB -16.19 dB 4:14 08-Blue And Green
DR11 -0.96 dB -15.00 dB 6:20 09-Body & Soul
––––––––––––––––––––––––––––––––––––––––

Number of tracks: 9
Official DR value: DR11

Samplerate: 192000 Hz
Channels: 2
Bits per sample: 24
Bitrate: 4787 kbps
Codec: FLAC
================================================================================


Thanks to the Original releaser!

More of 'Bill Evans' in Hi-Res

.