Subcategories

Billy Joel - Songs In The Attic (1981) [MFSL 2013] PS3 ISO + Hi-Res FLAC {RE-UP}

Posted By: HDAtall
Billy Joel - Songs In The Attic (1981) [MFSL 2013] PS3 ISO + Hi-Res FLAC {RE-UP}

Billy Joel - Songs In The Attic (1981) [MFSL 2013]
PS3 Rip | SACD ISO | DSD64 2.0 > 1-bit/2.8224 MHz | 48:18 minutes | Scans included | 1,51 GB
or FLAC(converted with foobar2000 to tracks) 24bit/88,2 kHz | Full Scans included | 1000 MB
Mobile Fidelity Sound Lab # UDSACD 2092

Having scored three multi-platinum hits in a row, Billy Joel took a breather, releasing his first live album, Songs in the Attic, as he worked on his ambitious follow-up to Glass Houses. Joel wisely decided to use the live album as an opportunity to draw attention to songs from his first four albums. Apart from "Piano Man," none of those songs had been heard by the large audience he had won with The Stranger. Furthermore, he now had a seasoned backing band that helped give his music a specific identity – in short, it was an opportunity to reclaim these songs, now that he had a signature sound. And Joel didn't botch the opportunity – Songs in the Attic is an excellent album, ranking among his very best work. With the possible exception of the Turnstiles material, every song is given a fuller, better arrangement that makes it all spring to life. "Los Angelenos" and "Everybody Loves You Now" hit harder in the live setting, while ballads like "She's Got a Way," "Summer, Highland Falls," and "I've Loved These Days" are richer and warmer in these versions. A few personal favorites from these albums may be missing, but what is here is impeccable, proving that even if Joel wasn't a celebrity in the early '70s, his best songs of the era rivaled his biggest hits.

Tracklist:

01. Miami 2017 (Seen The Lights Go Out On Broadway)
02. Summer, Highland Falls
03. Streetlife Serenader
04. Los Angelenos
05. She's Got A Way
06. Everybody Loves You Now
07. Say Goodbye to Hollywood
08. Captain Jack
09. You're My Home
10. The Ballad of Billy The Kid
11. I've Loved These Days

Mastered by Shawn R. Britton at Mobile Fidelity Sound Lab, Sebastopol, CA.

foobar2000 1.2.9 / Dynamic Range Meter 1.1.1

––––––––––––––––––––––––––––––––––––––––
Analyzed: Billy Joel / Songs In The Attic
––––––––––––––––––––––––––––––––––––––––

DR Peak RMS Duration Track
––––––––––––––––––––––––––––––––––––––––
DR11 -6.47 dB -21.36 dB 5:04 01-Miami 2017 (Seen The Lights Go Out On Broadway)
DR12 -6.23 dB -21.26 dB 3:07 02-Summer, Highland Falls
DR12 -6.31 dB -22.32 dB 5:18 03-Streetlife Serenader
DR12 -6.36 dB -20.52 dB 3:46 04-Los Angelenos
DR14 -8.27 dB -26.40 dB 3:02 05-She's Got A Way
DR12 -6.40 dB -20.82 dB 3:12 06-Everybody Loves You Now
DR12 -6.87 dB -20.31 dB 4:24 07-Say Goodbye to Hollywood
DR11 -6.43 dB -21.05 dB 7:17 08-Captain Jack
DR13 -6.32 dB -21.89 dB 3:07 09-You're My Home
DR12 -6.17 dB -21.61 dB 5:27 10-The Ballad of Billy The Kid
DR13 -6.16 dB -22.84 dB 4:35 11-I've Loved These Days
––––––––––––––––––––––––––––––––––––––––

Number of tracks: 11
Official DR value: DR12

Samplerate: 2822400 Hz / PCM Samplerate: 88200 Hz
Channels: 2
Bits per sample: 24
Bitrate: 5645 kbps
Codec: DSD64


Thanks to PS³SACD!
Uncompressed SACD ISO size > 1,93 GB
>
SACD ISO 1
SACD ISO 2
FLAC
>