Bob Dylan & The Band - The Bootleg Series, Vol. 11: The Basement Tapes (Complete Edition '2014) [Official Digital Download]

Posted By: HDV
Bob Dylan & The Band - The Bootleg Series, Vol. 11: The Basement Tapes (Complete Edition '2014) [Official Digital Download]

Bob Dylan and The Band - The Bootleg Series, Vol.11: The Basement Tapes - Complete (2014)
FLAC (tracks) 24-bit/44,1 kHz | Time - 394:51 minutes | 4,2 GB
Studio Master, Official Digital Download | Artwork: Complete CD Booklet
Chronicling Dylan's legendary 1967 sessions with The Band / Compiled from meticulously restored original tapes

"The Basement Tapes - Complete" brings together, for the first time ever, every salvageable recording from Bob Dylan's legendary 1967 recording sessions with members of his touring ensemble who would later achieve their own fame as The Band.

Preserving newly written Bob Dylan songs for copyright is the reason why the Band's Garth Hudson rolled tape at Big Pink but The Basement Tapes were something much more than songwriting demos. Greil Marcus dubbed it a celebration of the "Old, Weird America" in his 1997 book Invisible Republic, connecting these songs to Harry Smith's Anthology of American Folk Music, adding an extra layer of myth to tapes that were shrouded in mystery from the moment bootlegs started to circulate. The Basement Tapes Complete strengthens portions of that legend while simultaneously puncturing it. Certainly, the six-disc box – its first five discs assembled according to Hudson's numbering system, with the sixth disc collecting sessions discovered later – feels substantially different from the LP released in 1975, where the overall picture was distorted by Robbie Robertson adding sometimes significant overdubs and including Band recordings that weren't cut during those seven months in 1967. This is not a minor thing. These sly revisions gave the 1975 album a slight veneer that's been stripped away by this unfussy, startlingly clear remastering, but the big difference is that the chronological sequence on The Basement Tapes Complete gives the set a narrative. The first two discs are the band warming up, playing a bunch of old songs that are often of more recent vintage than the Old, Weird America reputation suggests – there's a clutch of Johnny Cash songs, a couple from Ian Tyson, a song apiece from Hank Williams, John Lee Hooker, Curtis Mayfield, and Dallas Frazier, a cross-section that underscores how this was the birth of what would be called Americana – and then on the second two discs, Dylan starts tying these disparate strands together on his originals. Many of these songs, usually the wildest and wooliest, showed up in 1975, so the news here are the sometimes quite different alternate takes and the major tunes that have been bootlegged widely over the years: the ghostly "I'm Not There," the winding modern spiritual "Sign on the Cross," the rambling, vulgar blues "Get Your Rocks Off," and the even wilder "Bourbon Street." These songs are necessary additions to the canon, but what gives The Basement Tapes their real resonance is the stuff that happens in the margins. It's the half-remembered covers, it's sterling throwaways like "Silent Weekend," it's Dylan turning his early songs upside down, it's hearing Bob and the Band stumble around as they're trying to find a groove. This is the wondrous thing about The Basement Tapes: this is music made with no expectation that anybody outside of a small circle would ever hear it. Of course, the opposite happened. The Basement Tapes leaked out and became an enduring part not only of the legacy of both Dylan and the Band, but also of American music as a whole, as it stood at the crossroads of so many different strands of American culture.

Tracklist:

CD1 #01 - Edge of the Ocean
CD1 #02 - My Bucket's Got a Hole in It
CD1 #03 - Roll on Train
CD1 #04 - Mr. Blue
CD1 #05 - Belshazzar
CD1 #06 - I Forgot to Remember to Forget
CD1 #07 - You Win Again
CD1 #08 - Still in Town
CD1 #09 - Waltzing with Sin
CD1 #10 - Big River (Take 1)
CD1 #11 - Big River (Take 2)
CD1 #12 - Folsom Prison Blues
CD1 #13 - Bells of Rhymney
CD1 #14 - Spanish is the Loving Tongue
CD1 #15 - Under Control
CD1 #16 - Ol' Roison the Beau
CD1 #17 - I'm Guilty of Loving You
CD1 #18 - Cool Water
CD1 #19 - The Auld Triangle
CD1 #20 - Po' Lazarus
CD1 #21 - I'm a Fool for You (Take 1)
CD1 #22 - I'm a Fool for You (Take 2)

CD2 #01 - Johnny Todd
CD2 #02 - Tupelo
CD2 #03 - Kickin' My Dog Around
CD2 #04 - See You Later Allen Ginsberg (Take 1)
CD2 #05 - See You Later Allen Ginsberg (Take 2)
CD2 #06 - Tiny Montgomery
CD2 #07 - Big Dog
CD2 #08 - I'm Your Teenage Prayer
CD2 #09 - Four Strong Winds
CD2 #10 - The French Girl (Take 1)
CD2 #11 - The French Girl (Take 2)
CD2 #12 - Joshua Gone Barbados
CD2 #13 - I'm in the Mood
CD2 #14 - Baby Ain't That Fine
CD2 #15 - Rock, Salt and Nails
CD2 #16 - A Fool Such As I
CD2 #17 - Song for Canada
CD2 #18 - People Get Ready
CD2 #19 - I Don't Hurt Anymore
CD2 #20 - Be Careful of Stones That You Throw
CD2 #21 - One Man's Loss
CD2 #22 - Lock Your Door
CD2 #23 - Baby, Won't You be My Baby
CD2 #24 - Try Me Little Girl
CD2 #25 - I Can't Make it Alone
CD2 #26 - Don't You Try Me Now

CD3 #01 - Young but Daily Growing
CD3 #02 - Bonnie Ship the Diamond
CD3 #03 - The Hills of Mexico
CD3 #04 - Down on Me
CD3 #05 - One for the Road
CD3 #06 - I'm Alright
CD3 #07 - Million Dollar Bash (Take 1)
CD3 #08 - Million Dollar Bash (Take 2)
CD3 #09 - Yea! Heavy and a Bottle of Bread (Take 1)
CD3 #10 - Yea! Heavy and a Bottle of Bread (Take 2)
CD3 #11 - I'm Not There
CD3 #12 - Please Mrs. Henry
CD3 #13 - Crash on the Levee (Take 1)
CD3 #14 - Crash on the Levee (Take 2)
CD3 #15 - Lo and Behold! (Take 1)
CD3 #16 - Lo and Behold! (Take 2)
CD3 #17 - You Ain't Goin' Nowhere (Take 1)
CD3 #18 - You Ain't Goin' Nowhere (Take 2)
CD3 #19 - I Shall be Released (Take 1)
CD3 #20 - I Shall be Released (Take 2)
CD3 #21 - This Wheel's on Fire
CD3 #22 - Too Much of Nothing (Take 1)
CD3 #23 - Too Much of Nothing (Take 2)

CD4 #01 - Tears of Rage (Take 1)
CD4 #02 - Tears of Rage (Take 2)
CD4 #03 - Tears of Rage (Take 3)
CD4 #04 - Quinn the Eskimo (Take 1)
CD4 #05 - Quinn the Eskimo (Take 2)
CD4 #06 - Open the Door Homer (Take 1)
CD4 #07 - Open the Door Homer (Take 2)
CD4 #08 - Open the Door Homer (Take 3)
CD4 #09 - Nothing Was Delivered (Take 1)
CD4 #10 - Nothing Was Delivered (Take 2)
CD4 #11 - Nothing Was Delivered (Take 3)
CD4 #12 - All American Boy
CD4 #13 - Sign on the Cross
CD4 #14 - Odds and Ends ((Alternate Version) Take 1)
CD4 #15 - Odds and Ends (Take 2)
CD4 #16 - Get Your Rocks Off
CD4 #17 - Clothes Line Saga
CD4 #18 - Apple Suckling Tree (Take 1)
CD4 #19 - Apple Suckling Tree (Take 2)
CD4 #20 - Don't Ya Tell Henry
CD4 #21 - Bourbon Street

CD5 #01 - Blowin' in the Wind
CD5 #02 - One Too Many Mornings
CD5 #03 - A Satisfied Mind
CD5 #04 - It Ain't Me, Babe
CD5 #05 - Ain't No More Cane (Take 1)
CD5 #06 - Ain't No More Cane ((Alternate Version) Take 2)
CD5 #07 - My Woman She's A-Leavin'
CD5 #08 - Santa-Fe
CD5 #09 - Mary Lou, I Love You Too
CD5 #10 - Dress It up, Better Have it All
CD5 #11 - Minstrel Boy
CD5 #12 - Silent Weekend
CD5 #13 - What's it Gonna be When it Comes Up
CD5 #14 - 900 Miles from My Home
CD5 #15 - Wildwood Flower
CD5 #16 - One Kind Favor
CD5 #17 - She'll be Coming Round the Mountain
CD5 #18 - It's the Flight of the Bumblebee
CD5 #19 - Wild Wolf
CD5 #20 - Goin' to Acapulco
CD5 #21 - Gonna Get You Now
CD5 #22 - If I Were a Carpenter
CD5 #23 - Confidential
CD5 #24 - All You Have to do is Dream (Take 1)
CD5 #25 - All You Have to do is Dream (Take 2)

CD6 #01 - 2 Dollars and 99 Cents
CD6 #02 - Jelly Bean
CD6 #03 - Any Time
CD6 #04 - Down by the Station
CD6 #05 - Hallelujah, I've Just Been Moved
CD6 #06 - That's the Breaks
CD6 #07 - Pretty Mary
CD6 #08 - Will the Circle be Unbroken
CD6 #09 - King of France
CD6 #10 - She's on My Mind Again
CD6 #11 - Goin' Down the Road Feeling Bad
CD6 #12 - On a Rainy Afternoon
CD6 #13 - I Can't Come in with a Broken Heart
CD6 #14 - Next Time on the Highway
CD6 #15 - Northern Claim
CD6 #16 - Love is Only Mine
CD6 #17 - Silhouettes
CD6 #18 - Bring it on Home
CD6 #19 - Come All Ye Fair and Tender Ladies
CD6 #20 - The Spanish Song (Take 1)
CD6 #21 - The Spanish Song (Take 2)
CD6 #22 - 900 Miles from My Home / Confidential

Analyzed: Bob Dylan / The Basement Tapes Complete: The Bootleg Series, Vol. 11
––––––––––––––––––––––––––––––––––––––––

DR Peak RMS Duration Track
––––––––––––––––––––––––––––––––––––––––
DR10 -2.25 dB -13.82 dB 2:21 01-Edge of the Ocean
DR9 -2.75 dB -13.65 dB 1:35 02-My Bucket's Got a Hole in It
DR9 -2.16 dB -12.58 dB 2:00 03-Roll on Train
DR9 -2.57 dB -13.89 dB 1:52 04-Mr. Blue
DR10 -2.54 dB -13.31 dB 3:22 05-Belshazzar
DR8 -3.86 dB -13.56 dB 3:19 06-I Forgot to Remember to Forget
DR10 -2.07 dB -14.27 dB 2:43 07-You Win Again
DR11 -1.79 dB -14.58 dB 3:05 08-Still in Town
DR10 -2.43 dB -13.95 dB 2:49 09-Waltzing with Sin
DR9 -3.95 dB -14.49 dB 0:43 10-Big River (Take 1)
DR9 -3.48 dB -13.84 dB 2:23 11-Big River (Take 2)
DR8 -3.33 dB -12.80 dB 2:46 12-Folsom Prison Blues
DR10 -2.28 dB -13.24 dB 3:16 13-Bells of Rhymney
DR12 -1.99 dB -15.95 dB 3:53 14-Spanish is the Loving Tongue
DR9 -3.43 dB -13.86 dB 2:50 15-Under Control
DR8 -2.46 dB -12.43 dB 4:55 16-Ol' Roison the Beau
DR9 -2.50 dB -14.07 dB 1:09 17-I'm Guilty of Loving You
DR9 -2.77 dB -13.86 dB 3:04 18-Cool Water
DR9 -3.86 dB -15.42 dB 5:47 19-The Auld Triangle
DR6 -6.65 dB -16.90 dB 1:00 20-Po' Lazarus
DR8 -4.00 dB -14.32 dB 1:06 21-I'm a Fool for You (Take 1)
DR9 -3.99 dB -15.16 dB 2:34 22-I'm a Fool for You (Take 2)
DR10 -0.78 dB -12.23 dB 2:05 01-Johnny Todd
DR10 -3.67 dB -14.72 dB 2:22 02-Tupelo
DR10 -3.64 dB -15.28 dB 2:43 03-Kickin' My Dog Around
DR8 -3.96 dB -14.13 dB 0:30 04-See You Later Allen Ginsberg (Take 1)
DR9 -3.55 dB -14.82 dB 0:51 05-See You Later Allen Ginsberg (Take 2)
DR9 -2.85 dB -13.71 dB 2:57 06-Tiny Montgomery
DR9 -4.27 dB -15.65 dB 0:24 07-Big Dog
DR8 -3.07 dB -13.77 dB 3:52 08-I'm Your Teenage Prayer
DR9 -3.05 dB -14.30 dB 3:42 09-Four Strong Winds
DR9 -3.30 dB -13.99 dB 2:12 10-The French Girl (Take 1)
DR8 -3.11 dB -13.57 dB 3:00 11-The French Girl (Take 2)
DR9 -3.09 dB -14.40 dB 2:46 12-Joshua Gone Barbados
DR9 -3.30 dB -15.35 dB 1:58 13-I'm in the Mood
DR12 -3.47 dB -17.23 dB 2:11 14-Baby Ain't That Fine
DR11 -4.79 dB -17.76 dB 4:37 15-Rock, Salt and Nails
DR10 -3.53 dB -15.18 dB 2:57 16-A Fool Such As I
DR9 -3.94 dB -14.33 dB 4:31 17-Song for Canada
DR11 -1.27 dB -16.34 dB 3:15 18-People Get Ready
DR11 -2.55 dB -15.13 dB 2:15 19-I Don't Hurt Anymore
DR10 -3.52 dB -16.34 dB 3:04 20-Be Careful of Stones That You Throw
DR10 -1.57 dB -13.22 dB 3:52 21-One Man's Loss
DR9 -3.06 dB -14.45 dB 0:23 22-Lock Your Door
DR8 -2.17 dB -11.86 dB 2:53 23-Baby, Won't You be My Baby
DR9 -2.29 dB -13.39 dB 1:38 24-Try Me Little Girl
DR9 -3.00 dB -13.73 dB 3:34 25-I Can't Make it Alone
DR9 -4.29 dB -14.83 dB 3:12 26-Don't You Try Me Now
DR11 -1.41 dB -14.47 dB 5:40 01-Young but Daily Growing
DR10 -2.54 dB -13.36 dB 3:21 02-Bonnie Ship the Diamond
DR9 -1.46 dB -12.66 dB 3:05 03-The Hills of Mexico
DR9 -3.03 dB -13.52 dB 0:43 04-Down on Me
DR9 -1.78 dB -12.57 dB 4:50 05-One for the Road
DR8 -1.77 dB -12.28 dB 1:46 06-I'm Alright
DR11 -0.33 dB -12.78 dB 2:52 07-Million Dollar Bash (Take 1)
DR9 -1.52 dB -12.06 dB 2:35 08-Million Dollar Bash (Take 2)
DR11 -0.55 dB -13.32 dB 1:50 09-Yea! Heavy and a Bottle of Bread (Take 1)
DR11 -0.55 dB -13.10 dB 2:16 10-Yea! Heavy and a Bottle of Bread (Take 2)
DR9 -2.32 dB -12.54 dB 5:13 11-I'm Not There
DR10 -1.52 dB -13.42 dB 2:34 12-Please Mrs. Henry
DR11 -0.55 dB -13.55 dB 2:11 13-Crash on the Levee (Take 1)
DR10 -0.65 dB -12.69 dB 2:06 14-Crash on the Levee (Take 2)
DR11 -1.04 dB -13.79 dB 2:54 15-Lo and Behold! (Take 1)
DR10 -1.30 dB -13.90 dB 2:50 16-Lo and Behold! (Take 2)
DR10 -0.85 dB -13.20 dB 2:48 17-You Ain't Goin' Nowhere (Take 1)
DR12 -1.30 dB -14.47 dB 2:46 18-You Ain't Goin' Nowhere (Take 2)
DR9 -3.20 dB -13.89 dB 4:04 19-I Shall be Released (Take 1)
DR12 -0.84 dB -14.62 dB 3:58 20-I Shall be Released (Take 2)
DR9 -1.47 dB -13.00 dB 3:54 21-This Wheel's on Fire
DR10 -1.63 dB -13.72 dB 3:03 22-Too Much of Nothing (Take 1)
DR10 -0.53 dB -12.55 dB 2:50 23-Too Much of Nothing (Take 2)
DR10 -2.67 dB -14.86 dB 4:04 01-Tears of Rage (Take 1)
DR9 -2.30 dB -13.89 dB 2:31 02-Tears of Rage (Take 2)
DR10 -1.49 dB -13.16 dB 4:15 03-Tears of Rage (Take 3)
DR12 -0.83 dB -13.99 dB 2:03 04-Quinn the Eskimo (Take 1)
DR10 -2.39 dB -13.98 dB 2:16 05-Quinn the Eskimo (Take 2)
DR11 -1.56 dB -14.38 dB 2:53 06-Open the Door Homer (Take 1)
DR10 -3.28 dB -15.88 dB 0:58 07-Open the Door Homer (Take 2)
DR10 -2.75 dB -14.28 dB 3:14 08-Open the Door Homer (Take 3)
DR9 -2.90 dB -14.15 dB 4:26 09-Nothing Was Delivered (Take 1)
DR11 -2.04 dB -14.47 dB 3:43 10-Nothing Was Delivered (Take 2)
DR10 -0.93 dB -13.88 dB 0:33 11-Nothing Was Delivered (Take 3)
DR9 -3.25 dB -13.73 dB 3:59 12-All American Boy
DR8 -2.30 dB -12.74 dB 7:21 13-Sign on the Cross
DR9 -1.65 dB -12.46 dB 1:48 14-Odds and Ends ((Alternate Version) Take 1)
DR10 -2.25 dB -13.41 dB 1:48 15-Odds and Ends (Take 2)
DR11 -1.51 dB -14.31 dB 3:46 16-Get Your Rocks Off
DR10 -1.21 dB -12.90 dB 2:59 17-Clothes Line Saga
DR10 -2.78 dB -14.74 dB 2:40 18-Apple Suckling Tree (Take 1)
DR10 -2.63 dB -14.53 dB 2:50 19-Apple Suckling Tree (Take 2)
DR10 -0.63 dB -12.38 dB 2:31 20-Don't Ya Tell Henry
DR11 -0.64 dB -14.15 dB 5:05 21-Bourbon Street
DR9 -1.08 dB -12.00 dB 6:36 01-Blowin' in the Wind
DR10 -0.60 dB -12.12 dB 3:23 02-One Too Many Mornings
DR10 -1.98 dB -14.69 dB 2:01 03-A Satisfied Mind
DR10 -2.05 dB -14.75 dB 3:32 04-It Ain't Me, Babe
DR11 -1.04 dB -14.95 dB 2:41 05-Ain't No More Cane (Take 1)
DR11 -1.04 dB -14.72 dB 1:58 06-Ain't No More Cane ((Alternate Version) Take 2)
DR12 -1.53 dB -14.56 dB 2:30 07-My Woman She's A-Leavin'
DR10 -1.69 dB -13.14 dB 2:08 08-Santa-Fe
DR9 -2.26 dB -12.22 dB 2:30 09-Mary Lou, I Love You Too
DR10 -0.70 dB -12.73 dB 2:53 10-Dress It up, Better Have it All
DR11 -0.87 dB -15.90 dB 1:40 11-Minstrel Boy
DR11 -1.19 dB -13.49 dB 3:01 12-Silent Weekend
DR12 -2.09 dB -16.21 dB 3:04 13-What's it Gonna be When it Comes Up
DR12 -0.03 dB -14.92 dB 2:14 14-900 Miles from My Home
DR10 -3.38 dB -15.67 dB 2:11 15-Wildwood Flower
DR12 -2.26 dB -16.24 dB 3:33 16-One Kind Favor
DR10 -3.73 dB -15.47 dB 1:39 17-She'll be Coming Round the Mountain
DR10 -3.41 dB -15.15 dB 2:09 18-It's the Flight of the Bumblebee
DR11 -0.66 dB -14.97 dB 3:35 19-Wild Wolf
DR9 -0.50 dB -12.48 dB 5:37 20-Goin' to Acapulco
DR10 -0.82 dB -13.60 dB 1:31 21-Gonna Get You Now
DR11 -1.76 dB -13.93 dB 2:23 22-If I Were a Carpenter
DR10 -3.27 dB -15.19 dB 1:36 23-Confidential
DR10 -2.72 dB -13.90 dB 3:56 24-All You Have to do is Dream (Take 1)
DR9 -2.08 dB -12.42 dB 3:20 25-All You Have to do is Dream (Take 2)
DR10 -3.44 dB -15.41 dB 2:35 01-2 Dollars and 99 Cents
DR10 -4.34 dB -15.38 dB 2:58 02-Jelly Bean
DR10 -3.98 dB -15.17 dB 3:17 03-Any Time
DR9 -2.95 dB -14.09 dB 1:29 04-Down by the Station
DR8 -5.03 dB -14.78 dB 3:04 05-Hallelujah, I've Just Been Moved
DR9 -2.53 dB -13.13 dB 4:18 06-That's the Breaks
DR8 -1.85 dB -11.80 dB 3:12 07-Pretty Mary
DR8 -3.05 dB -13.36 dB 2:09 08-Will the Circle be Unbroken
DR9 -3.26 dB -13.79 dB 3:53 09-King of France
DR10 -2.94 dB -13.97 dB 4:18 10-She's on My Mind Again
DR12 -1.94 dB -14.84 dB 3:21 11-Goin' Down the Road Feeling Bad
DR10 -1.20 dB -13.66 dB 2:53 12-On a Rainy Afternoon
DR6 -4.45 dB -12.59 dB 2:42 13-I Can't Come in with a Broken Heart
DR9 -2.09 dB -12.95 dB 2:20 14-Next Time on the Highway
DR8 -3.05 dB -12.59 dB 2:05 15-Northern Claim
DR9 -2.79 dB -14.35 dB 1:50 16-Love is Only Mine
DR9 -3.49 dB -15.59 dB 1:52 17-Silhouettes
DR9 -4.22 dB -15.12 dB 3:07 18-Bring it on Home
DR8 -5.29 dB -15.44 dB 2:09 19-Come All Ye Fair and Tender Ladies
DR7 -3.77 dB -13.72 dB 2:47 20-The Spanish Song (Take 1)
DR8 -3.78 dB -13.55 dB 2:16 21-The Spanish Song (Take 2)
DR10 -3.49 dB -15.95 dB 2:26 22-900 Miles from My Home / Confidential
––––––––––––––––––––––––––––––––––––––––

Number of tracks: 139
Official DR value: DR10

Samplerate: 44100 Hz
Channels: 2
Bits per sample: 24
Bitrate: 1373 kbps
Codec: FLAC
================================================================================


Thanks to the Original customer!