Bob Dylan - Desire (1976) [MFSL 2013] PS3 ISO + Hi-Res FLAC / RE-UP

Posted By: HDAtall
Bob Dylan - Desire (1976) [MFSL 2013] PS3 ISO + Hi-Res FLAC / RE-UP

Bob Dylan - Desire (1976) [MFSL 2013]
PS3 Rip | SACD ISO | DSD64 2.0 > 1-bit/2.8224 MHz | 56:20 minutes | Scans included | 1,75 GB
or FLAC(converted with foobar2000 to tracks) 24bit/88,2 kHz | Full Scans included | 1,23 GB
Mobile Fidelity Sound Lab # UDSACD 2119

If Blood on the Tracks was an unapologetically intimate affair, Desire is unwieldy and messy, the deliberate work of a collective. And while Bob Dylan directly addresses his crumbling relationship with his wife, Sara, on the final track, Desire is hardly as personal as its predecessor, finding Dylan returning to topical songwriting and folk tales for the core of the record. It's all over the map, as far as songwriting goes, and so is it musically, capturing Dylan at the beginning of the Rolling Thunder Revue era, which was more notable for its chaos than its music. And, so it's only fitting that Desire fits that description as well, as it careens between surging folk-rock, Mideastern dirges, skipping pop, and epic narratives. It's little surprise that Desire doesn't quite gel, yet it retains its own character – really, there's no other place where Dylan tried as many different styles, as many weird detours, as he does here. And, there's something to be said for its rambling, sprawling character, which has a charm of its own. Even so, the record would have been assisted by a more consistent set of songs; there are some masterpieces here, though: "Hurricane" is the best-known, but the effervescent "Mozambique" is Dylan at his breeziest, "Sara" at his most nakedly emotional, and "Isis" is one of his very best songs of the '70s, a hypnotic, contemporized spin on a classic fable. This may not add up to a masterpiece, but it does result in one of his most fascinating records of the '70s and '80s – more intriguing, lyrically and musically, than most of his latter-day affairs.

Tracklist:

01. Hurricane
02. Isis
03. Mozambique
04. One More Cup Of Coffee
05. Oh Sister
06. Joey
07. Romance In Durango
08. Black Diamond Bay
09. Sara

Mastered by Shawn R. Britton at Mobile Fidelity Sound Lab, Sebastopol, CA.

foobar2000 1.2.9 / Dynamic Range Meter 1.1.1

––––––––––––––––––––––––––––––––––––––––
Analyzed: Bob Dylan / Desire
––––––––––––––––––––––––––––––––––––––––

DR Peak RMS Duration Track
––––––––––––––––––––––––––––––––––––––––
DR11 -6.52 dB -19.34 dB 8:32 01-Hurricane
DR10 -7.50 dB -19.05 dB 7:00 02-Isis
DR12 -6.37 dB -20.51 dB 3:01 03-Mozambique
DR11 -6.45 dB -19.21 dB 3:47 04-One More Cup Of Coffee
DR11 -7.36 dB -20.38 dB 4:08 05-Oh Sister
DR10 -7.10 dB -19.99 dB 11:05 06-Joey
DR10 -6.76 dB -19.81 dB 5:43 07-Romance In Durango
DR10 -7.40 dB -19.34 dB 7:32 08-Black Diamond Bay
DR10 -7.26 dB -19.06 dB 5:31 09-Sara
––––––––––––––––––––––––––––––––––––––––

Number of tracks: 9
Official DR value: DR11

Samplerate: 2822400 Hz / PCM Samplerate: 88200 Hz
Channels: 2
Bits per sample: 24
Bitrate: 5645 kbps
Codec: DSD64


Thanks to PS³SACD!
Uncompressed SACD ISO size > 2,25 GB
>