Subcategories

Bob Dylan - Bob Dylan's Greatest Hits (1967) [MFSL 2016] PS3 ISO + Hi-Res FLAC

Posted By: HDAtall
Bob Dylan - Bob Dylan's Greatest Hits (1967) [MFSL 2016] PS3 ISO + Hi-Res FLAC

Bob Dylan - Bob Dylan's Greatest Hits (1967) [MFSL 2016]
PS3 Rip | SACD ISO | DSD64 2.0 > 1-bit/2.8224 MHz | 40:00 minutes | Scans included | 1,22 GB
or FLAC(converted with foobar2000 to tracks) 24bit/88,2 kHz | Full Scans included | 814 MB
Mobile Fidelity Sound Lab # 2120

Arriving in 1967, Greatest Hits does an excellent job of summarizing Dylan's best-known songs from his first seven albums. At just ten songs, it's a little brief, and the song selection may be a little predictable, but that's actually not a bad thing, since this provides a nice sampler for the curious and casual listener, as it boasts standards from "Blowin' in the Wind" to "Like a Rolling Stone." And, for collectors, the brilliant non-LP single "Positively Fourth Street" was added, which provided reason enough for anybody that already owned the original records to pick this up. This has since been supplanted by more exhaustive collections, but as a sampler of Dylan at his absolute peak, this is first-rate.

Tracklist:

01. Rainy Day Women # 12 & 35
02. Blowin' In The Wind
03. The Times They Are A-Changin'
04. It Ain't Me, Babe
05. Like A Rolling Stone
06. Mr. Tambourine Man
07. Subterranean Homesick Blues
08. I Want You
09. Positively 4th Street
10. Just Like A Woman

Mastered by Shawn R. Britton & Rob LoVerde at Mobile Fidelity Sound Lab, Sebastopol, CA.

foobar2000 1.3.8 / Dynamic Range Meter 1.1.1

––––––––––––––––––––––––––––––––––––––––
Analyzed: Bob Dylan / Bob Dylan's Greatest Hits
––––––––––––––––––––––––––––––––––––––––

DR Peak RMS Duration Track
––––––––––––––––––––––––––––––––––––––––
DR12 -6.55 dB -20.69 dB 4:34 01-Rainy Day Women # 12 & 35
DR13 -6.99 dB -22.36 dB 2:46 02-Blowin' In The Wind
DR9 -7.74 dB -20.46 dB 3:12 03-The Times They Are A-Changin'
DR11 -7.64 dB -21.36 dB 3:33 04-It Ain't Me, Babe
DR9 -7.41 dB -19.03 dB 6:08 05-Like A Rolling Stone
DR13 -6.74 dB -21.31 dB 5:25 06-Mr. Tambourine Man
DR11 -6.91 dB -19.28 dB 2:18 07-Subterranean Homesick Blues
DR11 -7.30 dB -20.26 dB 3:04 08-I Want You
DR9 -7.60 dB -19.00 dB 4:08 09-Positively 4th Street
DR12 -6.54 dB -21.38 dB 4:52 10-Just Like A Woman
––––––––––––––––––––––––––––––––––––––––

Number of tracks: 10
Official DR value: DR11

Samplerate: 2822400 Hz / PCM Samplerate: 88200 Hz
Channels: 2
Bits per sample: 24
Bitrate: 5645 kbps
Codec: DSD64


Thanks to PS³SACD!
Uncompressed SACD ISO size > 1,62 GB

More of BOB DYLAN on SACDs
>
SACD ISO 1
SACD ISO 2
FLAC
>