Subcategories

Bob Dylan - John Wesley Harding (1967) [MFSL 2016] MONOURAL PS3 ISO + Hi-Res FLAC

Posted By: HDAtall
Bob Dylan - John Wesley Harding (1967) [MFSL 2016] MONOURAL PS3 ISO + Hi-Res FLAC

Bob Dylan - John Wesley Harding (1967) [MFSL 2016]
PS3 Rip | SACD ISO | DSD64 2.0 > 1-bit/2.8224 MHz | 38:18 minutes | Scans included | 1,08 GB
or FLAC(converted with foobar2000 to tracks) 24bit/88,2 kHz | Full Scans included | 820 MB
MONOURAL / Mobile Fidelity Sound Lab # UDSACD 2183

Bob Dylan returned from exile with John Wesley Harding, a quiet, country-tinged album that split dramatically from his previous three. A calm, reflective album, John Wesley Harding strips away all of the wilder tendencies of Dylan's rock albums – even the then-unreleased Basement Tapes he made the previous year – but it isn't a return to his folk roots. If anything, the album is his first serious foray into country, but only a handful of songs, such as "I'll Be Your Baby Tonight," are straight country songs. Instead, John Wesley Harding is informed by the rustic sound of country, as well as many rural myths, with seemingly simple songs like "All Along the Watchtower," "I Dreamed I Saw St. Augustine," and "The Wicked Messenger" revealing several layers of meaning with repeated plays. Although the lyrics are somewhat enigmatic, the music is simple, direct, and melodic, providing a touchstone for the country-rock revolution that swept through rock in the late '60s.

Tracklist:

01. John Wesley Harding
02. As I Went Out One Morning
03. I Dreamed I Saw St. Augustine
04. All Along the Watchtower
05. The Ballad Of Frankie Lee and Judas Priest
06. Drifter's Escape
07. Dear Landlord
08. I Am a Lonesome Hobo
09. I Pity the Poor Immigrant
10. The Wicked Messenger
11. Down Along the Cove
12. I'll Be Your Baby Tonight

Mastered by Shawn R. Britton at Mobile Fidelity Sound Lab, Sebastopol, CA.

foobar2000 1.3.16 / Dynamic Range Meter 1.1.1

––––––––––––––––––––––––––––––––––––––––
Analyzed: Bob Dylan / John Wesley Harding
––––––––––––––––––––––––––––––––––––––––

DR Peak RMS Duration Track
––––––––––––––––––––––––––––––––––––––––
DR9 -7.79 dB -19.29 dB 2:57 01-John Wesley Harding
DR13 -6.42 dB -22.38 dB 2:49 02-As I Went Out One Morning
DR12 -7.35 dB -21.62 dB 3:52 03-I Dreamed I Saw St. Augustine
DR10 -6.88 dB -19.66 dB 2:31 04-All Along the Watchtower
DR11 -7.51 dB -20.32 dB 5:32 05-The Ballad of Frankie Lee and Judas Priest
DR12 -6.77 dB -20.29 dB 2:46 06-Drifter's Escape
DR11 -6.43 dB -20.40 dB 3:17 07-Dear Landlord
DR11 -6.65 dB -20.87 dB 3:19 08-I Am a Lonesome Hobo
DR11 -7.68 dB -21.66 dB 4:13 09-I Pity the Poor Immigrant
DR10 -7.26 dB -20.06 dB 2:02 10-The Wicked Messenger
DR10 -7.92 dB -20.52 dB 2:21 11-Down Along the Cove
DR13 -7.23 dB -22.41 dB 2:40 12-I'll Be Your Baby Tonight
––––––––––––––––––––––––––––––––––––––––

Number of tracks: 12
Official DR value: DR11

Samplerate: 2822400 Hz / PCM Samplerate: 88200 Hz
Channels: 2
Bits per sample: 1
Bitrate: 5645 kbps
Codec: DSD64


Thanks to PS³SACD!
Uncompressed SACD ISO size > 1,56 GB
>