Bob Morrison - Columbia Singles (2017) [Official Digital Download 24-bit/192kHz]

Posted By: HDV
Bob Morrison - Columbia Singles (2017) [Official Digital Download 24-bit/192kHz]

Bob Morrison - Columbia Singles (2017)
FLAC (tracks) 24-bit/192 kHz | Time - 28:48 minutes | 544 MB
FLAC (tracks) 24-bit/96 kHz | Time - 28:48 minutes | 348 MB
Studio Master, Official Digital Download | Artwork: Front cover

Robert Edwin Morrison, widely known as Bob Morrison is American songwriter. He was inducted in the Nashville Songwriters Hall of Fame 2016. His destiny was as a songwriter, rather than a recording artist. This compilation of his early recordings features the singles "Hey! Puppet Man", "The Work Song", "Let Her Go, Little Heart", and more, originally released in 1965-1967 by Columbia Records.

Tracklist:

01 - Hey! Puppet Man
02 - I Looked In the Mirror
03 - Let Her Go, Little Heart
04 - Love Theme from The Sandpiper (The Shadow of Your Smile)
05 - I Fall to You
06 - Then Suddenly
07 - I'm the Place
08 - Wait
09 - Santa Mouse
10 - It's Christmas
11 - The Work Song
12 - Go Away

Analyzed: Bob Morrison / Columbia Singles
––––––––––––––––––––––––––––––––––––––––

DR Peak RMS Duration Track
––––––––––––––––––––––––––––––––––––––––
DR10 -1.00 dB -12.81 dB 2:28 01-Hey! Puppet Man
DR10 -1.29 dB -12.14 dB 2:48 02-I Looked In the Mirror
DR10 -0.44 dB -12.17 dB 2:17 03-Let Her Go, Little Heart
DR10 -0.77 dB -12.83 dB 2:45 04-Love Theme from The Sandpiper (The Shadow of Your Smile)
DR10 -0.21 dB -11.75 dB 2:51 05-I Fall to You
DR9 -1.14 dB -12.23 dB 2:30 06-Then Suddenly
DR10 -0.28 dB -11.95 dB 2:13 07-I'm the Place
DR10 -1.02 dB -12.20 dB 2:21 08-Wait
DR10 -0.73 dB -12.10 dB 2:12 09-Santa Mouse
DR10 -0.14 dB -12.76 dB 1:38 10-It's Christmas
DR11 -0.59 dB -13.17 dB 2:00 11-The Work Song
DR11 -0.41 dB -12.79 dB 2:42 12-Go Away
––––––––––––––––––––––––––––––––––––––––

Number of tracks: 12
Official DR value: DR10

Samplerate: 192000 Hz
Channels: 2
Bits per sample: 24
Bitrate: 2340 kbps
Codec: FLAC
================================================================================


Thanks to the Original customer!