Tags
Language
Tags

Boots - Aquaria (2015) [Official Digital Download 24-bit/96kHz]

Posted By: HDV
Boots - Aquaria (2015) [Official Digital Download 24-bit/96kHz]

Boots - Aquaria (2015)
FLAC (tracks) 24-bit/96 kHz | Time - 38:31 minutes | 831 MB
Studio Master, Official Digital Download | Artwork: Front cover

"Aquaria" is the full-length debut from the producer best known for his work with Beyoncé. It's hollowly explosive and impeccably engineered, but Boots remains in his own shadow, his own music eclipsed by his production work. "Aquaria" itself is a rock album cumulatively – its soul is Mad Max and Jesus' Son, as if someone pushed Nine Inch Nails and Radiohead underwater and made them kiss – but Boots's primary instinct is genre agnosticism. This is an enormous benefit to the artists who work with him, but it's often a detriment when he's left alone.

Much like his sudden breakout onto the music scene, Boots' debut Aquaria (Columbia) starts with a buzz. Gaining exposure after producing much of Beyonce's 2013 surprise album, he went on to work with Run the Jewels (RTJ's El-P returns the favor here) and FKA Twigs. A pop queen, a hardcore rap duo, and an alt-R&B newcomer – seemingly disparate beneficiaries of one man's work, and yet it all makes perfect sense. Boots combines the best of R&B, rock, electronic, rap, and pop sensibilities for a futuristic sound that comes close to achieving a musical mono-genre singularity. Nothing on Aquaria seems out of place, but each song brings something new to the party.

Slathered in a sexy sinister sheen, his alt-R&B is borderline industrial at some points: switch his vocals for Trent Reznor's and these might be lost B-sides from Nine Inch Nails' Year Zero/Ghosts era ("I Run Roulette" and "Dead Come Running"). From the dizzying drone of "C.U.R.E." to the pulsing palpitations on "Oraclies," Boots crafts slick jams disguised as metal bangers. Depeche Mode, Radiohead, the aforementioned NIN: whether intentional or not, their knack for combining sick beats with aggressive instrumentation and textured atmospherics are influences found all over this album. Even trip-hop pioneer Tricky gets an allusive shout-out on "Bombs Away," its throbbing lurch like a shared heartbeat with Tricky's hit "Excess." Elsewhere, he's up alongside contemporaries in the alt-R&B scene: the spooky bombast, creepy strings, and jittering digital jolts sound like some of the better Daniel Johns (Silverchair) tracks on his solo debut, while the anxious, suffocating moments recall the Weeknd's work as a former mysterious mixtape artist.

Beyond the dissonant clash, a trio of smoothed-out tracks near the end of the album provide a break from the excitement: the drugged-out slow jam "Earthquake," the ghost-dirge "Only," and the plaintive, fame-phobic "Still," which actually brings the brightest shine to an overall ominous and thrilling affair.

Tracklist:

01 - Brooklyn Gamma
02 - C.U.R.E.
03 - Oraclies
04 - Bombs Away
05 - I Run Roulette
06 - Gallows
07 - AQUARIA
08 - Earthquake
09 - Only
10 - Dead Come Running
11 - Still

Analyzed: Boots / AQUARIA
––––––––––––––––––––––––––––––––––––––––

DR Peak RMS Duration Track
––––––––––––––––––––––––––––––––––––––––
DR5 -0.10 dB -8.88 dB 3:20 01-Brooklyn Gamma
DR5 -0.10 dB -5.74 dB 2:55 02-C.U.R.E.
DR5 -0.10 dB -7.57 dB 3:55 03-Oraclies
DR5 -0.10 dB -6.23 dB 3:26 04-Bombs Away
DR5 -0.10 dB -7.85 dB 3:50 05-I Run Roulette
DR6 -0.08 dB -8.07 dB 1:41 06-Gallows
DR5 -0.10 dB -6.94 dB 5:00 07-AQUARIA
DR7 -0.10 dB -8.01 dB 3:01 08-Earthquake
DR6 -0.10 dB -10.43 dB 4:16 09-Only
DR5 -0.10 dB -7.00 dB 4:10 10-Dead Come Running
DR9 -0.10 dB -12.74 dB 2:57 11-Still
––––––––––––––––––––––––––––––––––––––––

Number of tracks: 11
Official DR value: DR6

Samplerate: 96000 Hz
Channels: 2
Bits per sample: 24
Bitrate: 2739 kbps
Codec: FLAC
================================================================================


Thanks to the Original customer!