Bread - The Best Of Bread (1973) [Audio Fidelity 2015] MCH PS3 ISO + Hi-Res FLAC

Posted By: HDAtall
Bread - The Best Of Bread (1973) [Audio Fidelity 2015] MCH PS3 ISO + Hi-Res FLAC

Bread - The Best Of Bread (1973) [Audio Fidelity 2015]
PS3 Rip | SACD ISO | DSD64 2.0 & DST64 4.0 > 1-bit/2.8224 MHz | 34:13 minutes | Full Scans included | 2,15 GB
or FLAC 2.0 Stereo (converted with foobar2000 to tracks) 24bit/96 kHz | 34:05 mins | Scans included | 785 MB
Features Stereo and Quadrophonic Surround Sound | Mastered by Steve Hoffman | Audio Fidelity # AFZ5 197

The Best of Bread, is the single-disc collection of Bread's hits, spanning 12 tracks, including lesser-known hits that didn't reach the heights of "Make It With You", "Everything I Own", "If", or "Baby I'm a Want You". Though this isn't as comprehensive as Rhino's previous double-disc set – which means it doesn't contain the David Gates solo cuts that the first one does – it still provides most casual listeners with all the Bread they'd need, in a highly listenable fashion, too.

Tracklist:

01. Make It With You
02. Everything I Own
03. Diary
04. Baby I'm-a Want You
05. It Don't Matter to Me
06. If
07. Mother Freedom
08. Down on My Knees
09. Too Much Love
10. Let Your Love Go
11. Look What You've Done
12. Truckin'

4.0 Analog to High Definition DSD Digital Transfer by Gus Skinas.
Mastered by Steve Hoffman.

foobar2000 1.3.8 / Dynamic Range Meter 1.1.1

––––––––––––––––––––––––––––––––––––––––
Analyzed: Bread / The Best of Bread
––––––––––––––––––––––––––––––––––––––––

DR Peak RMS Duration Track
––––––––––––––––––––––––––––––––––––––––
DR12 -7.11 dB -27.79 dB 3:25 01-Make It With You
DR10 -7.62 dB -26.66 dB 3:10 02-Everything I Own
DR9 -11.72 dB -28.54 dB 3:06 03-Diary
DR9 -9.01 dB -25.72 dB 2:34 04-Baby I'm-a Want You
DR11 -7.71 dB -26.84 dB 2:50 05-It Don't Matter to Me
DR10 -12.95 dB -31.82 dB 2:38 06-If
DR9 -7.31 dB -22.94 dB 2:36 07-Mother Freedom
DR9 -8.38 dB -23.79 dB 2:46 08-Down on My Knees
DR11 -7.20 dB -26.68 dB 2:48 09-Too Much Love
DR10 -7.29 dB -24.62 dB 2:28 10-Let Your Love Go
DR11 -7.30 dB -26.90 dB 3:14 11-Look What You've Done
DR11 -6.66 dB -23.99 dB 2:38 12-Truckin'
––––––––––––––––––––––––––––––––––––––––

Number of tracks: 12
Official DR value: DR10

Samplerate: 2822400 Hz / PCM Samplerate: 88200 Hz
Channels: 5
Bits per sample: 24
Bitrate: 14112 kbps
Codec: DST64
================================================================================

––––––––––––––––––––––––––––––––––––––––
Analyzed: Bread / The Best of Bread
––––––––––––––––––––––––––––––––––––––––

DR Peak RMS Duration Track
––––––––––––––––––––––––––––––––––––––––
DR11 -8.65 dB -22.17 dB 3:17 01-Make It With You
DR13 -7.37 dB -23.78 dB 3:08 02-Everything I Own
DR12 -7.45 dB -23.13 dB 3:09 03-Diary
DR9 -9.10 dB -22.33 dB 2:32 04-Baby I'm-a Want You
DR11 -7.48 dB -23.60 dB 2:51 05-It Don't Matter to Me
DR9 -10.94 dB -23.11 dB 2:40 06-If
DR12 -7.29 dB -21.33 dB 2:37 07-Mother Freedom
DR11 -7.34 dB -21.23 dB 2:47 08-Down on My Knees
DR11 -8.16 dB -22.41 dB 2:48 09-Too Much Love
DR10 -8.05 dB -21.36 dB 2:26 10-Let Your Love Go
DR9 -8.29 dB -21.89 dB 3:14 11-Look What You've Done
DR11 -8.92 dB -21.60 dB 2:35 12-Truckin'
––––––––––––––––––––––––––––––––––––––––

Number of tracks: 12
Official DR value: DR11

Samplerate: 2822400 Hz / PCM Samplerate: 88200 Hz
Channels: 2
Bits per sample: 24
Bitrate: 5645 kbps
Codec: DSD64


Thanks to PS³SACD!
Uncompressed SACD ISO size > 2,43 GB
>