Tags
Language
Tags

Bruce Springsteen & The E Street Band - 2012-07-04 - Palais Omnisports De Paris-Bercy, Paris, France (2022) [24/48]

Posted By: delpotro
Bruce Springsteen & The E Street Band - 2012-07-04 - Palais Omnisports De Paris-Bercy, Paris, France (2022) [24/48]

Bruce Springsteen & The E Street Band - 2012-07-04 - Palais Omnisports De Paris-Bercy, Paris, France (2022)
FLAC (tracks) 24-bit/48 kHz | Front Cover | Time - 201:26 minutes | 2,55 GB
Folk Rock, Heartland Rock | Label: nugs net, Official Digital Download

Bruce and the E Street Band's two-night stand at the Bercy in Paris is considered one of the best stops on the 2012 European tour and merits companion releases. July 4, 2012 includes special Fourth of July performances of "Sandy" and a solo-piano "Independence Day." Night two at the Bercy in Paris sees Bruce change up the setlist dramatically, offering 15 different songs to night one, including an outstanding run of six to start the show: "The Ties That Bind," "No Surrender," "Two Hearts," "Downbound Train," "Candy's Room" and "Something In The Night."

Tracklist:
Disc 1
1. La Vie En Rose (1:03)
2. We Take Care of Our Own (4:38)
3. Wrecking Ball (6:40)
4. Badlands (6:12)
5. Death To My Hometown (4:40)
6. My City of Ruins (13:44)
7. Spirit In The Night (10:25)
8. The E Street Shuffle (9:17)
9. 4th of July, Asbury Park (Sandy) (6:40)
10. Jack of All Trades (6:49)

Disc 2
1. Because the Night (6:14)
2. Darkness On The Edge Of Town (4:50)
3. Johnny 99 (6:23)
4. Darlington County (6:49)
5. Easy Money (4:34)
6. Waitin' on a Sunny Day (6:47)
7. The Promised Land (5:55)
8. The Way You Do The Things You Do (4:35)
9. 634-5789 (Soulsville, U.S.A.) (6:19)
10. Independence Day (4:52)

Disc 3
1. The River (6:43)
2. The Rising (5:17)
3. Out in the Street (5:44)
4. Land Of Hope And Dreams - People Get Ready (11:10)
5. We Are Alive (7:51)
6. Born in the U.S.A. (4:52)
7. Born to Run (5:33)
8. Bobby Jean (4:56)
9. Dancing in the Dark (6:31)
10. Tenth Avenue Freeze-Out (7:54)
11. American Land (7:29)

foobar2000 1.4.1 / Dynamic Range Meter 1.1.1
log date: 2022-07-03 17:11:36

––––––––––––––––––––––––––––––––––––––––
Analyzed: Bruce Springsteen & The E Street Band / 2012/07/04 Palais Omnisports de Paris-Bercy, Paris, France
––––––––––––––––––––––––––––––––––––––––

DR Peak RMS Duration Track
––––––––––––––––––––––––––––––––––––––––
DR10 -0.20 dB -12.23 dB 1:03 01-La vie en rose
DR6 -0.21 dB -6.95 dB 4:38 02-We Take Care of Our Own
DR5 -0.21 dB -7.98 dB 6:40 03-Wrecking Ball
DR6 -0.21 dB -6.62 dB 6:12 04-Badlands
DR6 -0.22 dB -7.36 dB 4:40 05-Death to My Hometown
DR7 -0.22 dB -10.35 dB 13:44 06-My City of Ruins
DR5 -0.21 dB -7.80 dB 10:25 07-Spirit in the Night
DR6 -0.08 dB -8.10 dB 9:17 08-The E Street Shuffle
DR7 -0.22 dB -9.64 dB 6:40 09-4th of July, Asbury Park (Sandy)
DR8 -0.22 dB -11.66 dB 6:49 10-Jack of All Trades
DR6 -0.22 dB -6.93 dB 6:14 01-Because the Night
DR7 -0.22 dB -8.66 dB 4:50 02-Darkness on the Edge of Town
DR5 -0.21 dB -7.26 dB 6:23 03-Johnny 99
DR6 -0.21 dB -7.09 dB 6:49 04-Darlington County
DR6 -0.08 dB -7.85 dB 4:34 05-Easy Money
DR6 -0.22 dB -8.28 dB 6:47 06-Waitin' on a Sunny Day
DR6 -0.22 dB -7.61 dB 5:55 07-The Promised Land
DR7 -0.22 dB -10.33 dB 4:35 08-The Way You Do the Things You Do
DR6 -0.22 dB -8.21 dB 6:19 09-634-5789 (Soulsville, U.S.A.)
DR13 -0.25 dB -17.63 dB 4:52 10-Independence Day
DR9 -0.22 dB -12.48 dB 6:43 01-The River
DR6 -0.22 dB -8.17 dB 5:17 02-The Rising
DR6 -0.21 dB -7.41 dB 5:44 03-Out in the Street
DR6 -0.21 dB -8.72 dB 11:10 04-Land of Hope and Dreams / People Get Ready
DR7 -0.10 dB -10.28 dB 7:51 05-We Are Alive
DR6 -0.22 dB -7.72 dB 4:52 06-Born in the U.S.A.
DR6 -0.22 dB -7.04 dB 5:33 07-Born to Run
DR6 -0.22 dB -7.66 dB 4:56 08-Bobby Jean
DR6 -0.20 dB -7.46 dB 6:31 09-Dancing in the Dark
DR6 -0.20 dB -7.88 dB 7:54 10-Tenth Avenue Freeze-Out
DR7 -0.21 dB -8.45 dB 7:29 11-American Land
––––––––––––––––––––––––––––––––––––––––

Number of tracks: 31
Official DR value: DR7

Samplerate: 48000 Hz
Channels: 2
Bits per sample: 24
Bitrate: 1841 kbps
Codec: FLAC
================================================================================


Thanks to the Original customer!