Bryan Adams - Get Up (2015) [Official Digital Download 24bit/96kHz] RE-UP

Posted By: HDV
Bryan Adams - Get Up (2015) [Official Digital Download 24bit/96kHz] RE-UP

Bryan Adams - Get Up (2015)
FLAC (tracks) 24 bit/96 kHz | Time - 36:07 minutes | 905 MB
Studio Master, Official Digital Download | Artwork: Front cover

Bryan Adams' thirteenth studio album, Get Up, is a solid collection of beautifully-crafted rock songs, from the fast and furious up-tempo tracks such as lead song 'Brand New Day,' 'You Belong To Me' and 'Thunderbolt,' to the gentler songs such as 'Don't Even Try' and 'We Did It All.' Produced by Jeff Lynne (ELO, Traveling Wilburys), Get Up is one of Bryan's strongest efforts to date.

The prospect of Jeff Lynne (ELO, Tom Petty) producing Bryan Adams is fairly exciting, and he does lend a bristling, streamlined immediacy to Get Up. Adams' heartfelt rasp is in fine form too, but while "You Belong to Me" is a promising country-laced romp and "Don't Even Try" harkens back to late-Fifties innocence, the album's old-school streak also means a lot of bland lip service to rock & roll. Adams still has an easy way with middle-of-the-road anthems, but enthusiasm alone can't salvage stock tunes like "Thunderbolt". Worst of all, four tracks are repeated in acoustic form to fill out the album, making it feel like two EPs stitched together due to a lack of better material.

Tracklist:

01 - You Belong To Me
02 - Go Down Rockin'
03 - We Did It All
04 - That's Rock and Roll
05 - Don't Even Try
06 - Do What Ya Gotta Do
07 - Thunderbolt
08 - Yesterday Was Just A Dream
09 - Brand New Day
10 - Don't Even Try
11 - We Did It All
12 - You Belong To Me
13 - Brand New Day

Analyzed: Bryan Adams / Get Up
––––––––––––––––––––––––––––––––––––––––

DR Peak RMS Duration Track
––––––––––––––––––––––––––––––––––––––––
DR6 0.00 dB -6.92 dB 2:30 01-You Belong To Me
DR6 0.00 dB -7.12 dB 2:58 02-Go Down Rockin'
DR7 0.00 dB -7.72 dB 3:26 03-We Did It All
DR6 0.00 dB -7.07 dB 2:48 04-That's Rock and Roll
DR6 0.00 dB -7.16 dB 2:25 05-Don't Even Try
DR6 0.00 dB -6.79 dB 2:14 06-Do What Ya Gotta Do
DR6 0.00 dB -6.70 dB 2:15 07-Thunderbolt
DR7 0.00 dB -7.58 dB 2:58 08-Yesterday Was Just A Dream
DR6 0.00 dB -7.20 dB 3:33 09-Brand New Day
DR7 0.00 dB -8.65 dB 2:28 10-Don't Even Try
DR7 0.00 dB -9.13 dB 2:57 11-We Did It All
DR7 0.00 dB -8.02 dB 2:32 12-You Belong To Me
DR7 0.00 dB -8.41 dB 3:02 13-Brand New Day
––––––––––––––––––––––––––––––––––––––––

Number of tracks: 13
Official DR value: DR7

Samplerate: 96000 Hz
Channels: 2
Bits per sample: 24
Bitrate: 3184 kbps
Codec: FLAC
================================================================================


Thanks to the Original customer!