Bud Powell - The Scene Changes: The Amazing Bud Powell (Vol.5) (1959/2015) [Official Digital Download 24bit/192kHz]

Posted By: HDV
Bud Powell - The Scene Changes: The Amazing Bud Powell (Vol.5) (1959/2015) [Official Digital Download 24bit/192kHz]

Bud Powell - The Scene Changes: The Amazing Bud Powell (Vol.5) (1959/2015)
FLAC (tracks) 24 bit/192 kHz | Time - 39:51 minutes | 1,71 GB
Studio Master, Official Digital Download | Artwork: Front cover

The Scene Changes: The Amazing Bud Powell (Vol. 5), also known as The Amazing Bud Powell, Vol. 5: The Scene Changes, is a studio album by jazz pianist Bud Powell, released on Blue Note Records in 1959, featuring a session Powell recorded at the Rudy Van Gelder Studio in Hackensack, New Jersey on December 29, 1958, with Paul Chambers on bass and Art Taylor on drums.

This 1959 release features influential jazz pianist Bud Powell and his great trio, Paul Chambers on bass and Art Taylor on drums; each musician is given plenty of opportunity to showcase his formidable talents. All the material here consists of Powell originals, including the eight-minute highlight Comin' Up.

Tracklist:

01 - Cleopatra's Dream
02 - Duid Deed
03 - Down With It
04 - Danceland
05 - Borderick
06 - Crossin' The Channel
07 - Comin' Up
08 - Gettin' There
09 - The Scene Changes

Produced by Alfred Lion. Engineered by Rudy Van Gelder.
Recorded on December 29, 1958 at Rudy Van Gelder Studio, Hackensack, NJ.

Musicians:
Bud Powell - piano
Paul Chambers - bass
Art Taylor - drums

Analyzed: Bud Powell / The Scene Changes: The Amazing Bud Powell, Volume 5
––––––––––––––––––––––––––––––––––––––––

DR Peak RMS Duration Track
––––––––––––––––––––––––––––––––––––––––
DR11 0.00 dB -13.79 dB 4:24 01-Cleopatra's Dream
DR12 -0.23 dB -14.12 dB 5:08 02-Duid Deed
DR11 -0.47 dB -13.91 dB 4:00 03-Down With It
DR11 -0.49 dB -13.17 dB 3:43 04-Danceland
DR11 -0.26 dB -12.76 dB 2:01 05-Borderick
DR12 0.00 dB -13.58 dB 3:31 06-Crossin' The Channel
DR12 0.00 dB -13.63 dB 7:57 07-Comin' Up
DR12 -0.37 dB -13.15 dB 5:04 08-Gettin' There
DR11 -0.92 dB -14.55 dB 4:04 09-The Scene Changes
––––––––––––––––––––––––––––––––––––––––

Number of tracks: 9
Official DR value: DR11

Samplerate: 192000 Hz
Channels: 2
Bits per sample: 24
Bitrate: 5833 kbps
Codec: FLAC
================================================================================


Thanks to the Original customer!

Some more of 'Bud Powell' in Hi-Res