Buddy Miles Express - Booger Bear + Carlos Santana & Buddy Miles Live (1973+72) [Reissue 2019] MCH PS3 ISO + DSD64 + HD FLAC

Posted By: HDAtall
Buddy Miles Express - Booger Bear + Carlos Santana & Buddy Miles Live (1973+72) [Reissue 2019] MCH PS3 ISO + DSD64 + HD FLAC

Buddy Miles Express - Booger Bear / Carlos Santana & Buddy Miles Live (1973/72) [Reissue 2019]
PS3 Rip | 2x SACD ISO | DST64 2.0 & 5.1 > 1-bit/2.8224 MHz | 87:52 min | Front/Rear Covers | 4,15 GB
or DSD64 2.0 Stereo (from SACD-ISO to Tracks.dsf) > 1-bit/2.8224 MHz | Front/Rear Covers | 2,15 GB
or FLAC Stereo (carefully converted & encoded to tracks) 24bit/96 kHz | Front/Rear Covers | 2,0 GB
Features Stereo and Quadrophonic Surround Sound | Vocalion # 2CDSML 8560

"Booger Bear" was an album released by The Buddy Miles Express in 1973. It made the Billboard charts in 1974. "Carlos Santana & Buddy Miles! Live!" is a live album by Carlos Santana and Buddy Miles. It was recorded during the "Sunshine '72" Festival. In 2019, the UK label Dutton Vocalion released a double CD/SACD hybrid of "Booger Bear" and "Carlos Santana & Buddy Miles! Live!" with the CD content in stereo and the SACD layers offering the original multichannel quadraphonic mixes of each album.

Buddy Miles Express - Booger Bear
The album received a positive review in the November, 23, 1973 issue of Billboard. The reviewer referred to it as a production of the first order with time and care being put into the selections. The songs "Why" and "United Nations Stomp", both composed by Miles were singled out as solid entries. The album was also released in the Quadraphonic SQ Matrix. A review in the February, 24 issue Billboard for Quadrasonic albums mentioned the spectrum being opened up by the Columbia sound engineers. It also made the distinction between this album and most of the others that relied on the "Front" stereo approach, with the music in Booger Bear actually surrounding the listener. The album was a Billboard, FM Action Pick for KAFM-FM and KNAC-FM in early December, 1973, and a pick for WNEW-FM the following week.

Carlos Santana & Buddy Miles! Live!
From December 1971 to April 1972, Carlos Santana and several other members of Santana toured with drummer/vocalist Buddy Miles, a former member of the Electric Flag and Jimi Hendrix's Band of Gypsys. The resulting live album contained both Santana hits ("Evil Ways") and Buddy Miles hits ("Changes"), plus a 25-minute, side-long jam titled "Free Form Funkafide Filth." It was not, perhaps, the live album Santana fans had been waiting for, but at this point in its career, the band could do no wrong. The album went into the Top Ten and sold a million copies.

Tracklist

Disc 1: Buddy Miles Express - Booger Bear

01. Booger Bear
02. Thinking Of You
03. Why
04. You Really Got Me
05. Love
06. United Nations Stomp
07. Crazy Love
08. You Are Everything
09. Louie's Blues

Disc 2: Carlos Santana & Buddy Miles! Live!
01. Marbles
02. Lava
03. Evil Ways
04. Faith Interlude
05. Them Changes
06. Free Form Funkafide Filth

Remastered from the Original Master tapes by Michael J. Dutton.

foobar2000 1.6.2 / Dynamic Range Meter 1.1.1

––––––––––––––––––––––––––––––––––––––––
Analyzed: Buddy Miles / Booger Bear
––––––––––––––––––––––––––––––––––––––––

DR Peak RMS Duration Track
––––––––––––––––––––––––––––––––––––––––
DR7 -9.23 dB -23.64 dB 5:21 01-Booger Bear
DR7 -10.37 dB -25.17 dB 3:46 02-Thinking Of You
DR8 -9.75 dB -26.09 dB 3:55 03-Why
DR7 -9.94 dB -24.88 dB 4:39 04-You Really Got Me
DR7 -9.65 dB -24.54 dB 3:50 05-Love
DR7 -9.27 dB -24.18 dB 4:42 06-United Nations Stomp
DR7 -9.09 dB -24.14 dB 3:10 07-Crazy Love
DR7 -9.21 dB -25.02 dB 4:08 08-You Are Everything
DR7 -9.58 dB -26.71 dB 7:31 09-Louie s Blues
––––––––––––––––––––––––––––––––––––––––

Number of tracks: 9
Official DR value: DR7

Samplerate: 2822400 Hz / PCM Samplerate: 176400 Hz
Channels: 6
Bits per sample: 1
Bitrate: 16934 kbps
Codec: DST64
================================================================================

––––––––––––––––––––––––––––––––––––––––
Analyzed: Buddy Miles / Booger Bear
––––––––––––––––––––––––––––––––––––––––

DR Peak RMS Duration Track
––––––––––––––––––––––––––––––––––––––––
DR10 -8.62 dB -20.59 dB 5:29 01-Booger Bear
DR11 -9.58 dB -21.62 dB 3:45 02-Thinking Of You
DR11 -10.37 dB -24.29 dB 3:50 03-Why
DR11 -7.60 dB -20.87 dB 4:39 04-You Really Got Me
DR12 -8.39 dB -22.63 dB 3:48 05-Love
DR10 -8.68 dB -20.55 dB 4:42 06-United Nations Stomp
DR11 -8.60 dB -21.18 dB 3:08 07-Crazy Love
DR11 -8.68 dB -22.71 dB 4:08 08-You Are Everything
DR14 -7.04 dB -23.76 dB 7:34 09-Louie s Blues
––––––––––––––––––––––––––––––––––––––––

Number of tracks: 9
Official DR value: DR11

Samplerate: 2822400 Hz / PCM Samplerate: 176400 Hz
Channels: 2
Bits per sample: 1
Bitrate: 5645 kbps
Codec: DST64
================================================================================

foobar2000 1.6.2 / Dynamic Range Meter 1.1.1

––––––––––––––––––––––––––––––––––––––––
Analyzed: Carlos Santana & Buddy Miles / Carlos Santana & Buddy Miles! Live!
––––––––––––––––––––––––––––––––––––––––

DR Peak RMS Duration Track
––––––––––––––––––––––––––––––––––––––––
DR8 -6.69 dB -24.76 dB 4:18 01-Marbles
DR8 -7.03 dB -24.55 dB 2:12 02-Lava
DR8 -7.36 dB -24.14 dB 6:26 03-Evil Ways
DR9 -7.68 dB -26.50 dB 2:21 04-Faith Interlude
DR8 -6.25 dB -23.82 dB 5:45 05-Them Changes
DR9 -6.22 dB -24.89 dB 25:27 06-Free Form Funkafide Filth
––––––––––––––––––––––––––––––––––––––––

Number of tracks: 6
Official DR value: DR8

Samplerate: 2822400 Hz / PCM Samplerate: 176400 Hz
Channels: 6
Bits per sample: 1
Bitrate: 16934 kbps
Codec: DST64
================================================================================

––––––––––––––––––––––––––––––––––––––––
Analyzed: Carlos Santana & Buddy Miles / Carlos Santana & Buddy Miles! Live!
––––––––––––––––––––––––––––––––––––––––

DR Peak RMS Duration Track
––––––––––––––––––––––––––––––––––––––––
DR12 -5.63 dB -20.34 dB 4:19 01-Marbles
DR12 -6.37 dB -20.37 dB 2:10 02-Lava
DR11 -5.94 dB -19.39 dB 6:30 03-Evil Ways
DR12 -8.44 dB -21.93 dB 2:21 04-Faith Interlude
DR10 -6.09 dB -18.43 dB 5:53 05-Them Changes
DR12 -5.50 dB -20.84 dB 25:14 06-Free Form Funkafide Filth
––––––––––––––––––––––––––––––––––––––––

Number of tracks: 6
Official DR value: DR11

Samplerate: 2822400 Hz / PCM Samplerate: 176400 Hz
Channels: 2
Bits per sample: 1
Bitrate: 5645 kbps
Codec: DST64


Thanks to KingCrim!
Uncompressed SACD ISO size > 1,84 + 2,09 GB
>