Cage The Elephant - Unpeeled (2017) [Official Digital Download]

Posted By: HDV
Cage The Elephant - Unpeeled (2017) [Official Digital Download]

Cage The Elephant - Unpeeled (2017)
FLAC (tracks) 24-bit/48 kHz | Time - 80:16 minutes | 1,02 GB
Studio Master, Official Digital Download | Artwork: Front cover

On the heels of their recent unplugged tour, Grammy-winning band Cage the Elephant have released an acoustic set titled "Unpeeled". The album was recorded during a series of acoustic shows in cities like Los Angeles, Washington, D.C., Knoxville and Nashville. Unpeeled features 18 curated songs from the band’s past four albums as well as three retooled existing songs, performed live and stripped down - in some cases with a string quartet and a choral accompaniment.

Tracklist:

01 - Cry Baby
02 - Whole Wide World
03 - Sweetie Little Jean
04 - Spiderhead
05 - Take It or Leave It
06 - Too Late To Say Goodbye
07 - Punchin' Bag
08 - Shake Me Down
09 - Telescope
10 - Instant Crush
11 - Trouble
12 - Ain't No Rest for the Wicked
13 - Rubber Ball
14 - Aberdeen
15 - Golden Brown
16 - Cold Cold Cold
17 - How Are You True
18 - Come a Little Closer
19 - Back Against the Wall
20 - Cigarette Daydreams
21 - Right Before My Eyes

Analyzed: Cage The Elephant / Unpeeled
––––––––––––––––––––––––––––––––––––––––

DR Peak RMS Duration Track
––––––––––––––––––––––––––––––––––––––––
DR5 -0.01 dB -6.30 dB 4:21 01-Cry Baby
DR5 -0.01 dB -6.79 dB 3:26 02-Whole Wide World
DR6 -0.01 dB -7.08 dB 3:26 03-Sweetie Little Jean
DR6 -0.01 dB -6.54 dB 3:34 04-Spiderhead
DR7 -0.01 dB -8.51 dB 3:25 05-Take It or Leave It
DR6 -0.01 dB -7.86 dB 4:00 06-Too Late To Say Goodbye
DR7 -0.01 dB -8.49 dB 3:35 07-Punchin' Bag
DR8 -0.01 dB -10.23 dB 3:30 08-Shake Me Down
DR8 -0.01 dB -10.05 dB 3:51 09-Telescope
DR7 -0.01 dB -7.79 dB 5:09 10-Instant Crush
DR6 -0.01 dB -8.09 dB 4:11 11-Trouble
DR7 -0.01 dB -9.01 dB 2:59 12-Ain't No Rest for the Wicked
DR10 -0.01 dB -13.05 dB 4:04 13-Rubber Ball
DR7 -0.01 dB -8.15 dB 2:54 14-Aberdeen
DR6 -0.64 dB -9.22 dB 3:57 15-Golden Brown
DR6 -1.09 dB -8.80 dB 3:34 16-Cold Cold Cold
DR8 -0.01 dB -11.01 dB 4:40 17-How Are You True
DR7 -0.10 dB -8.28 dB 3:45 18-Come a Little Closer
DR6 -1.33 dB -7.96 dB 3:47 19-Back Against the Wall
DR8 -0.01 dB -9.48 dB 3:27 20-Cigarette Daydreams
DR9 -0.74 dB -13.19 dB 4:40 21-Right Before My Eyes
––––––––––––––––––––––––––––––––––––––––

Number of tracks: 21
Official DR value: DR7

Samplerate: 48000 Hz
Channels: 2
Bits per sample: 24
Bitrate: 1294 kbps
Codec: FLAC
================================================================================


Thanks to the Original customer!

Cage The Elephant - Tell Me I'm Pretty