Tags
Language
Tags

Camille Thurman - Inside The Moment (2017) [Official Digital Download 24-bit/192kHz]

Posted By: HDV
Camille Thurman - Inside The Moment (2017) [Official Digital Download 24-bit/192kHz]

Camille Thurman - Inside The Moment (2017) [Binaural+]
FLAC (tracks) 24-bit/192 kHz | Time - 49:14 minutes | 1,55 GB
FLAC (tracks) 24-bit/96 kHz | Time - 49:14 minutes | 954 MB
Studio Master, Official Digital Download | Artwork: Front cover

The world of Jazz has been graced by many great female vocalists through the decades – Ella Fitzgerald, Sara Vaughan, Nina Simone, Billie Holiday, to name just a few. Chesky Records is excited to introduce a name we feel will one day be in their company…Camille Thurman. On her Chesky Records debut, Thurman shows her versatility with stunning performances on both saxophone and vocals.

Camille Thurman - Inside The Moment (2017) [Official Digital Download 24-bit/192kHz]

The multi-talented Camille Thurman is an award-winning composer, a formidable saxophonist, and a second-place winner of the prestigious Sarah Vaughan Vocal Competition. She has performed with artists ranging from Dr. Billy Taylor, George Coleman, Lew Tabackin, and George Benson, to Chaka Khan, Alicia Keys, and Missy Elliot. She recently made her Jazz at Lincoln Center debut during the Generations in Jazz Festival, leading a killer quartet as she sang, played, and showcased original compositions and some classics. She also recently gave an improvised scatting performance during Battle of the Big Bands that brought down the house in The Appel Room. The inaugural release of the new Virtual Audio Series from Chesky Records, this album was recorded in front of a live audience at Rockwood Music Hall in the SoHo neighborhood of Manhattan, using a single binaural microphone. This technique places the listener in the middle of a live show. If you didn't know any better, you'd swear you can smell the perfume of the young lady seated to your left.

Tracklist:

01 - The Night Has a Thousand Eyes
02 - Sassy's Blues
03 - Road Song
04 - Detour Ahead
05 - Nefertiti
06 - Flower Is a Lovesome Thing
07 - Cherokee

Produced by David Chesky.
Recorded at Rockwood Music Hall, NYC.
Engineered, Edited & Mastered by Nicholas Prout.

Musicians:
Camille Thurman - tenor saxophone, vocals
Mark Whitfield - guitar
Ben Allison - bass
Billy Drummond - drums

Analyzed: Camille Thurman / Inside the Moment
––––––––––––––––––––––––––––––––––––––––

DR Peak RMS Duration Track
––––––––––––––––––––––––––––––––––––––––
DR14 -0.17 dB -18.47 dB 7:22 01-The Night Has a Thousand Eyes
DR17 -0.20 dB -22.71 dB 7:40 02-Sassy's Blues
DR15 -0.23 dB -18.62 dB 6:13 03-Road Song
DR16 -0.35 dB -22.12 dB 7:43 04-Detour Ahead
DR15 -0.30 dB -18.86 dB 7:43 05-Nefertiti
DR16 -0.44 dB -21.20 dB 7:42 06-Flower Is a Lovesome Thing
DR17 -0.40 dB -25.30 dB 4:51 07-Cherokee
––––––––––––––––––––––––––––––––––––––––

Number of tracks: 7
Official DR value: DR16

Samplerate: 192000 Hz
Channels: 2
Bits per sample: 24
Bitrate: 3767 kbps
Codec: FLAC
================================================================================


Thanks to the Original customer!