Casey - Where I Go When I Am Sleeping (2018) [Official Digital Download 24-bit/96kHz]

Posted By: HDV
Casey - Where I Go When I Am Sleeping (2018) [Official Digital Download 24-bit/96kHz]

Casey - Where I Go When I Am Sleeping (2018)
FLAC (tracks) 24-bit/96 kHz | Time - 40:54 minutes | 860 MB
Studio Master, Official Digital Download | Artwork: Front cover

South Wales has been home to many incredible artists, but none compare to the melancholy, heartfelt post-hardcore outfit that is Casey. Their sophomore album “Where I Go When I Am Sleeping” is a beautiful palette of some of the most raw, intense passages infused with post-rock, melodic edges that resonate in an overwhelming manner. Casey are a band whose music is not defined by their image, or where they come from; how they met, or where they’ve been before now. Casey is a means of self-expression created with no underlying motive, only the wish to experience and relate. Music is their labour of love.


Tom Weaver has been to hell and back, and wants to tell you about it. The frontman for Wales-based rock outfit Casey sang of adoration and bereavement on their debut, Love Is Not Enough, but shifts the lyrical lens of his band's sophomore effort Where I Go When I Am Sleeping toward hindrances surrounding the mental and physical miseries that have plagued him. From manic depression to a car accident that left half of Weaver's face paralyzed, Casey's music is certainly not impersonal. The group have many strong suits in their hand, like tension-building tempos and emotive vocal delivery, but Casey are at their best here when pursuing brooding, atmospheric post-punk. "Needlework," "Making Weight" and "Morphine" all amply articulate Weaver's emotional baggage through melodies that are bathed in reverb without feeling overbearing.

The deepest hindrance of Casey's Where I Go When I Am Sleeping is their indecisiveness. The band's harshest moments ("Wound," "Wavering") revisit what fellow UK melodic hardcore champs Dead Swans brought to the table almost a decade ago, but when it comes time for things to mellow out in "Flowers By the Bed," Casey often over-share lyrically and are sonically overwhelming. Where I Go When I Am Sleeping is unsure whether it wants to be a Basement or Defeater record, and every so often it staggers when attempting to blend the two.

Tracklist:

01 - Making Weight
02 - Wavering
03 - Phosphenes
04 - &
05 - Fluorescents
06 - Flowers by the Bed
07 - Needlework
08 - Morphine
09 - Bruise
10 - The Funeral
11 - Where I Go When I Am Sleeping
12 - Wound

Analyzed: Casey / Where I Go When I Am Sleeping
––––––––––––––––––––––––––––––––––––––––

DR Peak RMS Duration Track
––––––––––––––––––––––––––––––––––––––––
DR12 -0.45 dB -15.63 dB 2:41 01-Making Weight
DR6 -0.30 dB -7.67 dB 3:24 02-Wavering
DR7 -0.30 dB -8.42 dB 3:24 03-Phosphenes
DR10 -0.49 dB -14.02 dB 1:38 04-&
DR6 -0.30 dB -8.38 dB 4:30 05-Fluorescents
DR6 -0.30 dB -7.52 dB 3:43 06-Flowers by the Bed
DR6 -0.30 dB -8.00 dB 3:38 07-Needlework
DR7 -0.32 dB -10.57 dB 1:21 08-Morphine
DR7 -0.30 dB -9.43 dB 4:17 09-Bruise
DR7 -0.30 dB -9.13 dB 4:58 10-The Funeral
DR7 -0.30 dB -9.11 dB 3:19 11-Where I Go When I Am Sleeping
DR6 -0.30 dB -9.00 dB 4:01 12-Wound
––––––––––––––––––––––––––––––––––––––––

Number of tracks: 12
Official DR value: DR7

Samplerate: 96000 Hz
Channels: 2
Bits per sample: 24
Bitrate: 2901 kbps
Codec: FLAC
================================================================================


Thanks to the Original customer!