Celine Dion - Encore un soir {Deluxe Edition} (2016) [Official Digital Download 24/96]

Posted By: HDV
Celine Dion - Encore un soir {Deluxe Edition} (2016) [Official Digital Download 24/96]

Céline Dion - Encore un soir (2016) [Deluxe Edition]
FLAC (tracks) 24-bit/96 kHz | Time - 56:51 minutes | 1,2 GB
Studio Master, Official Digital Download | Artwork: Digital booklet

Encore un soir (meaning One More Night). The album was recorded entirely in Celine's native language of French. The title track was composed by legendary French songwriter Jean-Jacques Goldman, marking a long-awaited reunion with Celine 12 years in the making. For the songs on this album, Celine personally chose uplifting themes that focused on life and positivity.

Celine Dion began work on Encore un Soir in the summer of 2015 when her husband Rene Angelil was quite ill. He passed away in January 2016, around the midpoint of the sessions, so it could stand to reason the album was a way for Dion to work through her grief, but this French-language record isn't quite as simple as that. For one, Dion's art isn't strictly autobiographical; she may pour herself into her performances but a correlation between her personal life and her recordings isn't easy to draw. Secondly, Encore un Soir is evenly divided between pop tunes and ballads, not too dissimilar from her usual albums. That said, there's a certain sense of restraint and deliberateness to Encore un Soir that does give it an emotional pull. It's too pat to call it a response to her husband's death – after all, the album was underway prior to his passing – but at the very least the measured performances here suggest that Dion is starting to feel settled in her middle age, no longer wanting to push at the boundaries of her range but deciding to let her interpretations breathe. As such, this album is one of the subtlest and most moving collections in her catalog.

Tracklist:

01 - Plus qu'ailleurs
02 - L'étoile
03 - Ma faille
04 - Encore un soir
05 - Je nous veux
06 - Les yeux au ciel
07 - Si c'était à refaire
08 - Ordinaire
09 - Tu sauras
10 - Toutes ces choses
11 - Le bonheur en face
12 - À la plus haute branche
13 - À vous
14 - Ma force
15 - Trois heures vingt

Analyzed: Céline Dion / Encore un soir (Deluxe Edition)
––––––––––––––––––––––––––––––––––––––––

DR Peak RMS Duration Track
––––––––––––––––––––––––––––––––––––––––
DR8 -0.82 dB -11.92 dB 3:39 01-Plus qu'ailleurs
DR3 -0.82 dB -6.95 dB 3:14 02-L'étoile
DR5 -0.82 dB -9.08 dB 3:51 03-Ma faille
DR6 -0.82 dB -9.72 dB 4:23 04-Encore un soir (Album Version)
DR5 -0.82 dB -9.16 dB 3:58 05-Je nous veux
DR5 -0.82 dB -8.31 dB 2:57 06-Les yeux au ciel
DR6 -0.82 dB -11.45 dB 3:52 07-Si c'était à refaire
DR4 -0.82 dB -8.88 dB 4:44 08-Ordinaire
DR5 -0.82 dB -9.60 dB 3:26 09-Tu sauras
DR12 -0.82 dB -16.73 dB 3:24 10-Toutes ces choses
DR7 -0.82 dB -11.08 dB 2:55 11-Le bonheur en face
DR12 -0.82 dB -17.52 dB 4:50 12-À la plus haute branche
DR6 -0.82 dB -8.28 dB 3:46 13-À vous
DR6 -0.82 dB -9.07 dB 4:14 14-Ma force
DR8 -0.82 dB -11.77 dB 3:38 15-Trois heures vingt (Remastered)
––––––––––––––––––––––––––––––––––––––––

Number of tracks: 15
Official DR value: DR6

Samplerate: 96000 Hz
Channels: 2
Bits per sample: 24
Bitrate: 3165 kbps
Codec: FLAC
================================================================================


Thanks to the Original customer!

Loved Me Back To Life (2013)