Tags
Language
Tags

Cerys Matthews & Hidden Orchestra - We Come from the Sun (2021) [Official Digital Download 24/48]

Posted By: delpotro
Cerys Matthews & Hidden Orchestra - We Come from the Sun (2021) [Official Digital Download 24/48]

Cerys Matthews & Hidden Orchestra - We Come from the Sun (2021)
FLAC (tracks) 24-bit/48 kHz | Front Cover | Time - 34:02 minutes | 368 MB
Electronic, New Age, Spoken Word, Poetry | Label: Decca Records, Official Digital Download

We Come From The Sun is composed by Cerys Matthews with Hidden Orchestra and features 10 UK poets: MA.MOYO, Raymond Antrobus, Lemn Sissay, Liz Berry, Anthony Anaxagorou, Adam Horovitz, Cia Mangat, Imtiaz Dharker, Kim Moore and Kayo Chingonyi.

“We are living in extraordinary times, I wanted to respond but had the urge to offer more than one voice, more than one perspective. Not an echo chamber” – Cerys Matthews.

In February 2020 Abbey Road studios welcomed each of the 10 poets to record pieces from their collections. Then lock down hit…. But remotely and with the additional help of field recordists and musicians around the world, Cerys and Joe Acheson (Hidden Orchestra) created a sound journey for these poems with the theme of: Genesis; Birth, heritage, a journey about to begin.

Tracklist:
1. Flame Lily (03:43)
2. Happy Birthday Moon (02:22)
3. Adventure Flight (03:16)
4. She Strikes The Ball Like a Match (01:48)
5. Once I Had an Acceptance Speech (03:37)
6. And the Soul (02:24)
7. Connemara (02:51)
8. A House Built From Cloth (02:11)
9. Loch Long by Ardgartan, Argyll (02:32)
10. The Trick (03:01)
11. Birmingham Roller (03:20)
12. Sometimes You Think of Bowness (02:52)

foobar2000 1.4.1 / Dynamic Range Meter 1.1.1
log date: 2021-01-15 17:52:15

––––––––––––––––––––––––––––––––––––––––
Analyzed: Adam Horovitz, Cerys Matthews & Hidden Orchestra / We Come from the Sun (1)
Cerys Matthews, Hidden Orchestra & Anthony Anaxagorou / We Come from the Sun (2)
Cerys Matthews, Hidden Orchestra & Cia Mangat / We Come from the Sun (3)
Cerys Matthews, Hidden Orchestra & Imtiaz Dharker / We Come from the Sun (4)
Cerys Matthews, Hidden Orchestra & Kayo Chingonyi / We Come from the Sun (5)
Cerys Matthews, Hidden Orchestra & Kim Moore / We Come from the Sun (6-7)
Cerys Matthews, Hidden Orchestra & Liz Berry / We Come from the Sun (8-9)
Cerys Matthews, Hidden Orchestra & Ma.Moyo / We Come from the Sun (10)
Cerys Matthews, Lemn Sissay & Hidden Orchestra / We Come from the Sun (11)
Cerys Matthews, Raymond Antrobus & Hidden Orchestra / We Come from the Sun (12)
––––––––––––––––––––––––––––––––––––––––

DR Peak RMS Duration Track
––––––––––––––––––––––––––––––––––––––––
DR10 -0.30 dB -14.05 dB 2:11 08-A House Built from Cloth
DR7 -0.30 dB -10.31 dB 3:37 05-Once I Had an Acceptance Speech
DR14 -0.30 dB -17.41 dB 1:49 04-She Strikes the Ball Like a Match
DR10 -1.21 dB -19.31 dB 3:01 10-The Trick
DR18 -0.30 dB -22.96 dB 2:32 09-Loch Long by Ardgartan, Argyll
DR5 -0.30 dB -7.64 dB 2:25 06-And the Soul
DR14 -0.30 dB -18.20 dB 2:52 12-Sometimes You Think of Bowness
DR14 -0.30 dB -17.38 dB 2:51 07-Connemara
DR12 -0.30 dB -17.25 dB 3:21 11-Birmingham Roller
DR5 -0.20 dB -7.05 dB 3:43 01-Flame Lily
DR7 -0.20 dB -10.53 dB 3:17 03-Adventure Flight
DR15 -0.21 dB -18.28 dB 2:23 02-Happy Birthday Moon
––––––––––––––––––––––––––––––––––––––––

Number of tracks: 12
Official DR value: DR11

Samplerate: 48000 Hz
Channels: 2
Bits per sample: 24
Bitrate: 1431 kbps
Codec: FLAC
================================================================================


Thanks to the Original customer!