Subcategories

Charles Aznavour - Plus bleu... (1997) [Reissue 2004] {2.0 & 5.1} PS3 ISO + Hi-Res FLAC

Posted By: HDAtall
Charles Aznavour - Plus bleu... (1997) [Reissue 2004] {2.0 & 5.1} PS3 ISO + Hi-Res FLAC

Charles Aznavour - Plus bleu… (1997) [Reissue 2004] {2.0 & 5.1}
PS3 Rip | SACD ISO | DST64 2.0 & 5.1 > 1-bit/2.8224 MHz | 53:59 minutes | Scans included | 4,05 GB
or FLAC 2.0 Stereo (converted with foobar2000 to tracks) 24bit/88,2 kHz | Full Scans included | 1,12 MB

Plus Bleu… est le 42e album studio français de Charles Aznavour. Aznavour n'a jamais été avare en remerciements pour Piaf. Il n'a jamais oublié l'aide qu'elle lui a apporté à l'aube de sa carrière. Dans cet album de 1997, c'est un hommage en chanson qui lui est rendue par le bais d'un duo posthume: "Plus bleu…".

Tracklist:

01. Plus Bleu Que Tes Yeux [En duo avec Edith Piaf]
02. Gitana, Gitana
03. Dis-Moi Que Tu M'Aimes
04. Droit des Femines
05. Avant de T'Aimer
06. Caraïbes
07. Amour Amer
08. Piano Bar
09. Images de la Vie
10. Yiddishe Mamma
11. De Déraison en Déraison
12. Ma Dernière Chanson Pour Toi
13. Enfants [avec les Petits Chanteurs de la Croix de Bois]
14. Nous Nous Reverrons un Jour Ou l'Autre
15. Ce Métier

foobar2000 1.3.5 / Dynamic Range Meter 1.1.1

––––––––––––––––––––––––––––––––––––––––
Analyzed: Charles Aznavour / Plus Bleu
––––––––––––––––––––––––––––––––––––––––

DR Peak RMS Duration Track
––––––––––––––––––––––––––––––––––––––––
DR11 -7.22 dB -24.19 dB 3:04 01-Plus bleu que tes yeux
DR12 -5.52 dB -20.99 dB 2:33 02-Gitana gitana
DR11 -8.72 dB -25.16 dB 2:44 03-Dis moi que tu m'aimes
DR13 -7.00 dB -22.31 dB 4:29 04-Le droit des femmes
DR12 -6.23 dB -23.32 dB 3:48 05-Avant de t'aimer
DR13 -5.93 dB -22.59 dB 4:56 06-Les caraibes
DR11 -7.72 dB -22.23 dB 2:47 07-Amour amer
DR13 -7.29 dB -23.75 dB 4:51 08-Au piano bar
DR12 -8.05 dB -22.68 dB 4:31 09-Les images de la vie
DR11 -6.84 dB -25.27 dB 3:24 10-La yiddishe mama my yddish mama
DR11 -6.97 dB -22.76 dB 3:18 11-De deraison en deraison
DR12 -6.77 dB -23.76 dB 3:14 12-Ma derniere chanson pour toi
DR11 -6.93 dB -21.63 dB 2:28 13-Les enfants
DR11 -6.87 dB -23.17 dB 3:46 14-Nous nous reverrons un jour ou l'autre
DR12 -7.09 dB -22.47 dB 4:04 15-Ce metier
––––––––––––––––––––––––––––––––––––––––

Number of tracks: 15
Official DR value: DR12

Samplerate: 2822400 Hz / PCM Samplerate: 88200 Hz
Channels: 6
Bits per sample: 24
Bitrate: 16934 kbps
Codec: DST64
================================================================================

––––––––––––––––––––––––––––––––––––––––
Analyzed: Charles Aznavour / Plus Bleu
––––––––––––––––––––––––––––––––––––––––

DR Peak RMS Duration Track
––––––––––––––––––––––––––––––––––––––––
DR11 -6.92 dB -20.14 dB 3:04 01-Plus bleu que tes yeux
DR11 -5.67 dB -17.84 dB 2:34 02-Gitana gitana
DR11 -7.53 dB -21.57 dB 2:44 03-Dis moi que tu m'aimes
DR11 -5.96 dB -18.29 dB 4:30 04-Le droit des femmes
DR11 -6.72 dB -19.70 dB 3:49 05-Avant de t'aimer
DR12 -5.89 dB -19.26 dB 4:57 06-Les caraibes
DR11 -6.64 dB -18.41 dB 2:47 07-Amour amer
DR12 -6.16 dB -20.23 dB 4:52 08-Au piano bar
DR11 -5.83 dB -18.63 dB 4:32 09-Les images de la vie
DR11 -6.58 dB -21.14 dB 3:25 10-La yiddishe mama my yddish mama
DR11 -6.77 dB -19.72 dB 3:18 11-De deraison en deraison
DR12 -6.58 dB -20.06 dB 3:14 12-Ma derniere chanson pour toi
DR10 -7.08 dB -18.99 dB 2:28 13-Les enfants
DR11 -6.53 dB -19.47 dB 3:45 14-Nous nous reverrons un jour ou l'autre
DR11 -6.30 dB -18.69 dB 4:04 15-Ce metier
––––––––––––––––––––––––––––––––––––––––

Number of tracks: 15
Official DR value: DR11

Samplerate: 2822400 Hz / PCM Samplerate: 88200 Hz
Channels: 2
Bits per sample: 24
Bitrate: 5645 kbps
Codec: DST64


Uncompressed SACD ISO size > 3,84 GB
Thanks to grillbrill!