Charles Munch, Boston Symphony Orchestra - Hector Berlioz: Symphonie Fantastique (1962) [HDTT 2012]

Posted By: HDV
Charles Munch, Boston Symphony Orchestra - Hector Berlioz: Symphonie Fantastique (1962) [HDTT 2012]

Charles Munch, Boston SO - Berlioz: Symphonie Fantastique (1962/2012)
FLAC (tracks) 24 bit/192 kHz | Time - 49:01 minutes | 1,96 GB
Studio Master, Official Digital Download | Artwork: CD Artwork

…Munch and his orchestra are utterly persuasive in their view of the work and thanks to HDTT, they are with us again in wonderful, near-analogue sound. Incidentally, this 1962 version is rarely seen on a reissue, the 1956 version is the one thats almost always used….

…In any event, it became and has remained one of the most popular orchestral works in the classical repertoire. In the hands of Charles Munch and the Boston Symphony Orchestra, the acknowledged mid-twentieth century leaders of French music performance, it is predictably clear, light, airy, and utterly refined. In this superbly engineered transfer from a four track RCA analogue tape (1962) made in Boston's Symphony Hall, even in its richest instrumental sections, it literally floats before us, naturally warm and breathy. Low strings are especially present, well-defined, and full, grounding the work but without raising any Dionysian issues. This is an early nineteenth century fantasy, Munch reminds us: Freud is not yet on the scene. The famous "March to the Scaffold" takes place in splendidly bright, brass-lit sunlight. And the "Dream of the Witches' Sabbath" is a manic olio of puckishness, melodrama, and brio, ending in one of music history's most fulsome conclusions. It is all seemingly composed to show off the virtuosity of the orchestra, which it does in spades. It is a veritable guide to the orchestra, precursor of Britten's nearly a century later.

Tracklist:

01 - Daydreams - Passions
02 - A ball
03 - Scene in the Country
04 - March to the Scaffold
05 - Dream of a Witches Sabbath

Analyzed: Charles Munch, Boston Symphony Orchestra / Berlioz: Symphonie Fantastique
––––––––––––––––––––––––––––––––––––––––

DR Peak RMS Duration Track
––––––––––––––––––––––––––––––––––––––––
DR15 -2.25 dB -22.65 dB 13:58 01-Daydreams - Passions
DR13 -4.90 dB -22.68 dB 6:25 02-A ball
DR15 -2.18 dB -25.43 dB 14:56 03-Scene in the Country
DR11 0.00 dB -15.86 dB 4:28 04-March to the Scaffold
DR13 0.00 dB -17.95 dB 9:16 05-Dream of a Witches Sabbath
––––––––––––––––––––––––––––––––––––––––

Number of tracks: 5
Official DR value: DR13

Samplerate: 192000 Hz
Channels: 2
Bits per sample: 24
Bitrate: 5431 kbps
Codec: FLAC
================================================================================


Thanks to the Original customer!

.