Mischa Maisky, Lars Anders Tomter, Czech PO, Vladimir Ashkenazy - Strauss: Don Quixote (2001/2009) PS3 ISO + Hi-Res FLAC

Posted By: HDAtall
Mischa Maisky, Lars Anders Tomter, Czech PO, Vladimir Ashkenazy - Strauss: Don Quixote (2001/2009) PS3 ISO + Hi-Res FLAC

Mischa Maisky, Lars Anders Tomter, Czech PO, Vladimir Ashkenazy - Strauss: Don Quixote (2001/2009)
PS3 Rip | SACD ISO | DSD64 2.0 > 1-bit/2.8224 MHz | 67:20 minutes | Basic Covers | 1,75 GB
or FLAC(converted with foobar2000 to tracks) 24bit/88,2 kHz | Basic Covers incl. | 1,27 GB

Mischa Maisky (cello), Lars Anders Tomter (viola) and Czech Philharmonic Orchestra, conducted by Vladimir Ashkenazy performs Richard Strauss' "Don Quixote (Fantastic Variations on a Theme of Knightly Character)" & "Symphonic Poem "Death and Transfiguration" on this Japanese SACD. A pure DSD recording.

Tracklist:

01. Don Quixote Op.35 - Introduktion
02. Don Quixote Op.35 - Var.1
03. Don Quixote Op.35 - Var.2
04. Don Quixote Op.35 - Var.3
05. Don Quixote Op.35 - Var.4
06. Don Quixote Op.35 - Var.5
07. Don Quixote Op.35 - Var.6
08. Don Quixote Op.35 - Var.7
09. Don Quixote Op.35 - Var.8
10. Don Quixote Op.35 - Var.9
11. Don Quixote Op.35 - Var.10
12. Don Quixote Op.35 - Finale
13. Symphonic Poem "Death and Transfiguration" Op.24

Recorded at Rudolfinum Dvorakova sin, Prague, October 7-8, 1999.
Recording Director: Miyuki Ito. Balance Engineer: Tomoyoshi Ezaki
DSD Editor: Takeshi Muramatsu.

foobar2000 1.3.14 / Dynamic Range Meter 1.1.1

––––––––––––––––––––––––––––––––––––––––
Analyzed: Mischa Maisky(vc),Lars Anders Tomter(va),Czech Philharmonic Orchestra conducted by Vladimir Ashkenazy / R.Strauss:Don Quixote,Symphonic Poem "Death and Transfiguration"
––––––––––––––––––––––––––––––––––––––––

DR Peak RMS Duration Track
––––––––––––––––––––––––––––––––––––––––
DR15 -5.98 dB -27.46 dB 8:11 01-Don Quixote Op.35 - Introduktion
DR16 -8.35 dB -31.01 dB 2:33 02-Don Quixote Op.35 - Var.1
DR14 -6.14 dB -27.33 dB 1:38 03-Don Quixote Op.35 - Var.2
DR15 -6.08 dB -27.56 dB 7:49 04-Don Quixote Op.35 - Var.3
DR13 -6.20 dB -26.47 dB 1:49 05-Don Quixote Op.35 - Var.4
DR15 -9.97 dB -35.67 dB 4:27 06-Don Quixote Op.35 - Var.5
DR15 -9.18 dB -31.26 dB 1:05 07-Don Quixote Op.35 - Var.6
DR10 -6.01 dB -20.45 dB 1:20 08-Don Quixote Op.35 - Var.7
DR14 -5.99 dB -28.09 dB 1:39 09-Don Quixote Op.35 - Var.8
DR11 -11.92 dB -29.41 dB 1:03 10-Don Quixote Op.35 - Var.9
DR12 -5.99 dB -22.37 dB 4:00 11-Don Quixote Op.35 - Var.10
DR14 -14.12 dB -34.66 dB 5:59 12-Don Quixote Op.35 - Finale
DR12 -5.98 dB -23.95 dB 25:47 13-Symphonic Poem "Death and Transfiguration" Op.24
––––––––––––––––––––––––––––––––––––––––

Number of tracks: 13
Official DR value: DR14

Samplerate: 2822400 Hz / PCM Samplerate: 88200 Hz
Channels: 2
Bits per sample: 1
Bitrate: 5645 kbps
Codec: DSD64


Thanks to ManWhoCan!
Uncompressed SACD ISO size > 2,7 GB
>