Chicago Symphony Orchestra, Claudio Abbado - Mahler: Symphony No. 5 (1981/2017) [Official Digital Download 24-bit/192kHz]

Posted By: HDV
Chicago Symphony Orchestra, Claudio Abbado - Mahler: Symphony No. 5 (1981/2017) [Official Digital Download 24-bit/192kHz]

Chicago Symphony Orchestra, Claudio Abbado - Mahler: Symphony No.5 (1981/2017)
FLAC (tracks) 24-bit/192 kHz | Time - 72:27 minutes | 2,12 GB
Studio Master, Official Digital Download | Artwork: Front cover

As with just about all the Mahler symphonies, Abbado has made multiple recordings of the Fifth, but this, his first, remains his finest, and an exceptional performance by any standard. It has all of the famed Chicago virtuosity but also a welcome attention to detail and willingness to savor a phrase that you almost never find with Solti’s Chicago Mahler. It’s great to hear a coda to the second movement that for once does not sound anti-climactic. We expect the horn playing in the scherzo to be stunning, and so it is, but the music also has grace, charm, and plenty of atmosphere at an appropriately relaxed basic tempo that, as you can hear, leaves plenty of space for the big moments to expand.

The one controversial element in this performance, at least by today’s standards, is the very, very slow tempo for the Adagietto: a bit more than twelve minutes. It’s gorgeously played and beautifully sustained. I don’t consider it to be too slow. Within the context of the performance it fits, particularly when the finale has so much contrasting energy and freshness. Sonically, too, this was probably the best of Abbado’s Chicago Mahler recordings, a fine analog effort that was eclipsed by the subsequent rise of mostly awful sounding early digital productions. DG seems to have stopped using SPARS codes on its discs, at least for this reissue, hiding the fact that this is not an original digital production, but that’s all to the good. Surely one of the great Mahler Fifths, this performance represents one of the rare times that Abbado lived up to his potential in a Mahler symphony.

Symphony No. 5 in C-Sharp Minor:
I. Trauermarsch. In gemessenem Schritt. Streng. Wie ein Kondukt - Plötzlich schneller. Leidenschaftlich. Wild - Tempo I
II. Stürmisch bewegt. Mit größter Vehemenz - Bedeutend langsamer - Tempo I subito
III. Scherzo. Kräftig, nicht zu schnell
IV. Adagietto. Sehr Langsam
V. Rondo - Finale. Allegro - Allegro giocoso. Frisch

Recorded in February 1980 at Orchestra Hall, Chicago, IL.

Analyzed: Chicago Symphony Orchestra, Claudio Abbado / Mahler: Symphony No. 5
––––––––––––––––––––––––––––––––––––––––

DR Peak RMS Duration Track
––––––––––––––––––––––––––––––––––––––––
DR14 -0.46 dB -19.77 dB 12:54 01-Symphony No. 5 in C-Sharp Minor: I. Trauermarsch. In gemessenem Schritt. Streng. Wie ein Kondukt - Plötzlich schneller. Leidenschaftlich. Wild - Tempo I
DR13 -0.41 dB -18.47 dB 15:14 02-Symphony No. 5 in C-Sharp Minor: II. Stürmisch bewegt. Mit größter Vehemenz - Bedeutend langsamer - Tempo I subito
DR15 -0.49 dB -21.37 dB 17:39 03-Symphony No. 5 in C-Sharp Minor: III. Scherzo. Kräftig, nicht zu schnell
DR12 -9.55 dB -29.82 dB 11:56 04-Symphony No. 5 in C-Sharp Minor: IV. Adagietto. Sehr Langsam
DR13 -0.42 dB -19.05 dB 14:43 05-Symphony No. 5 in C-Sharp Minor: V. Rondo - Finale. Allegro - Allegro giocoso. Frisch
––––––––––––––––––––––––––––––––––––––––

Number of tracks: 5
Official DR value: DR13

Samplerate: 192000 Hz
Channels: 2
Bits per sample: 24
Bitrate: 4074 kbps
Codec: FLAC
================================================================================


Thanks to the Original customer!