Chris Hinze Combination - Mission Suite (1973/2015) [Official Digital Download 24/88]

Posted By: HDV
Chris Hinze Combination - Mission Suite (1973/2015) [Official Digital Download 24/88]

Chris Hinze Combination - Mission Suite (1973/2015)
FLAC (tracks) 24-bit/88,2 kHz | Time - 43:39 minutes | 866 MB
Studio Master, Official Digital Download | Artwork: Front cover

The lauded Chris Hinze Combination, led by Dutch flutist Chris Hinze, includes two jazz stalwarts: bassist John Lee and drummer Gerry Brown; both have worked with a “who’s who” of the jazz and pop world. Add electric keyboard, guitar and percussion, plus the emotional vocals of Henny Vonk and the combination results in this tasty concoction of jazz and funk, seasoned with a pinch of pop and the classics. Mission Suite is an outstanding fusion venture by one of the preeminent flutists in jazz.

Endowed with formidable classical and jazz chops, Dutch flutist Chris Hinze has played with Charlie Mariano, Cecil Taylor, and the Brecker Brothers. The lauded Chris Hinze Combination includes two jazz stalwarts, bassist John Lee and drummer Gerry Brown; both credit work with the “who’s who” of the jazz and pop world. Add vocals, electric keyboard, guitar, and percussion, and you have a tasty concoction of jazz and funk, with a pinch of pop and the classics for flavoring. Di-da-du-la-da is a musical tryptic of furious fusion, rhapsodic lyricism, and fast and funky bass-and-drums-led improvisation. Mission Suite is all about modal interplay, including a sizzlingly vocal flute, and a haunting bowed bass-vocal duet. Deliverance highlights Hinze’s passionate, throaty flute solo, the use of space, open tempos, and the emotional gestalt of singer Henny Vonk. The Ballad has an archaic sylvan quality, and Bamboo Funk starts off with a Baroque-tinged melody before it gets down to delivering what the title implies – Chris at his funky best on bamboo flute. An outstanding fusion venture by one of jazz’s premier flutists.

Tracklist:

01 - Di-Da-De-Lu-Da
02 - Mission Suite
03 - Deliverance
04 - The Ballad
05 - Bamboo Funk

Produced by Willi Fruth & Chris Hinze. Engineered by Wolfgang Hirschmann.
Recorded in The Cornett Studio, Köln, Germany. Digitally Remastered.

Musicians:
Chris Hinze - flute, alto-flute, bamboo flute, piccolo flute
Henny Vonk - vocals, percussion
Sigi Schwab - guitars, 12-string guitar
John Lee - bass
Gerry Brown - drums
Rob van de Broeck - electric piano, Fender Rhodes
Cees See - percussion
Wim van der Beek - percussion


Analyzed: Chris Hinze Combination / Mission Suite
––––––––––––––––––––––––––––––––––––––––

DR Peak RMS Duration Track
––––––––––––––––––––––––––––––––––––––––
DR11 -1.88 dB -15.75 dB 8:05 01-Di-Da-De-Lu-Da
DR11 -2.59 dB -17.78 dB 14:53 02-Mission Suite
DR11 -1.20 dB -15.29 dB 11:21 03-Deliverance
DR10 -3.10 dB -17.64 dB 3:51 04-The Ballad
DR10 -0.71 dB -13.98 dB 5:28 05-Bamboo Funk
––––––––––––––––––––––––––––––––––––––––

Number of tracks: 5
Official DR value: DR11

Samplerate: 88200 Hz
Channels: 2
Bits per sample: 24
Bitrate: 2720 kbps
Codec: FLAC
================================================================================


Thanks to the Original customer!