Clark Terry - Portraits (1989) [Reissue 2004] {2.0 & 5.0} PS3 ISO + Hi-Res FLAC {RE-UP}

Posted By: HDAtall
Clark Terry - Portraits (1989) [Reissue 2004] {2.0 & 5.0} PS3 ISO + Hi-Res FLAC {RE-UP}

Clark Terry - Portraits (1989) [Reissue 2004] {2.0 & 5.0}
PS3 Rip | SACD ISO | DST64 2.0 & 5.0 > 1-bit/2.8224 MHz | 56:01 minutes | Scans included | 2,61 GB
or FLAC 2.0 Stereo (converted with foobar2000 to tracks) 24bit/88,2 kHz | Scans included | 1,16 GB
Features Stereo and Multichannel surround sound | Label: Chesky Records

Terry’s good humor, joyful and immediately distinctive sound, and creative, bop-oriented ideas combined to form a very accessible style. This Chesky CD finds C.T. joined by pianist Don Friedman, bassist Victor Gaskin and drummer Lewis Nash for a variety of superior standards and Terry’s lone original “Finger Filibuster.” The songs all pay tribute to various trumpeters, and some, such as “Pennies from Heaven,” “Little Jazz” and “I Don’t Wanna Be Kissed,” were not performed by the flugelhornist all that often; the resulting music is fresher than usual and often quite inspired. Recommended.

Tracklist:

01. Pennies From Heaven
02. Sugar Blues
03. Autumn Leaves
04. Finger Filibuster
05. Little Jazz
06. When It's Sleepy Time Down South
07. Jive At Five
08. Ciribiribin
09. Ow
10. I Can't Get Started
11. I Don't Wanna Be Kissed

Produced by David Chesky.

Personnel
Clark Terry - trumpet & flugelhorn
Don Friedman - piano
Victor Gaskin - bass
Lewis Nash - drums

foobar2000 1.2.1 / Dynamic Range Meter 1.1.1

––––––––––––––––––––––––––––––––––––––––
Analyzed: Clark Terry / Portraits
––––––––––––––––––––––––––––––––––––––––

DR Peak RMS Duration Track
––––––––––––––––––––––––––––––––––––––––
DR13 -8.73 dB -35.91 dB 5:59 01-Pennies From Heaven
DR14 -6.37 dB -34.89 dB 4:33 02-Sugar Blues
DR13 -11.11 dB -36.33 dB 4:40 03-Autumn Leaves
DR13 -11.30 dB -36.79 dB 3:51 04-Finger Filibuster
DR13 -6.40 dB -33.37 dB 5:43 05-Little Jazz
DR13 -7.02 dB -34.45 dB 5:11 06-When It's Sleepy Time Down South
DR15 -7.23 dB -36.76 dB 8:10 07-Jive At Five
DR13 -9.65 dB -35.18 dB 3:46 08-Ciribiribin
DR13 -6.70 dB -33.11 dB 3:32 09-Ow
DR12 -9.73 dB -34.46 dB 4:27 10-I Can't Get Started
DR13 -7.15 dB -33.15 dB 6:08 11-I Don't Wanna Be Kissed
––––––––––––––––––––––––––––––––––––––––

Number of tracks: 11
Official DR value: DR13

Samplerate: 2822400 Hz / PCM Samplerate: 88200 Hz
Channels: 5
Bits per sample: 24
Bitrate: 14112 kbps
Codec: DST64
================================================================================

––––––––––––––––––––––––––––––––––––––––
Analyzed: Clark Terry / Portraits
––––––––––––––––––––––––––––––––––––––––

DR Peak RMS Duration Track
––––––––––––––––––––––––––––––––––––––––
DR17 -8.73 dB -32.49 dB 5:59 01-Pennies From Heaven
DR18 -6.37 dB -31.40 dB 4:33 02-Sugar Blues
DR17 -11.11 dB -32.75 dB 4:40 03-Autumn Leaves
DR16 -11.30 dB -33.27 dB 3:51 04-Finger Filibuster
DR17 -6.40 dB -29.92 dB 5:43 05-Little Jazz
DR17 -7.02 dB -31.14 dB 5:11 06-When It's Sleepy Time Down South
DR18 -7.23 dB -33.28 dB 8:10 07-Jive At Five
DR17 -9.65 dB -31.59 dB 3:46 08-Ciribiribin
DR18 -6.70 dB -29.67 dB 3:32 09-Ow
DR15 -9.73 dB -31.15 dB 4:27 10-I Can't Get Started
DR17 -7.15 dB -29.66 dB 6:08 11-I Don't Wanna Be Kissed
––––––––––––––––––––––––––––––––––––––––

Number of tracks: 11
Official DR value: DR17

Samplerate: 2822400 Hz / PCM Samplerate: 88200 Hz
Channels: 2
Bits per sample: 24
Bitrate: 5645 kbps
Codec: DST64


Thanks to grillbrill!
Uncompressed SACD ISO size > 2,46 GB
>