Clement Simon - Man On The Moon (2018) [Official Digital Download 24/88]

Posted By: HDV
Clement Simon - Man On The Moon (2018) [Official Digital Download 24/88]

Clément Simon - Man On The Moon (2018)
FLAC (tracks) 24-bit/88,2 kHz | Time - 38:04 minutes | 810 MB
Studio Master, Official Digital Download | Artwork: Front cover

Clément Simon is the French Jazz pianist. "Man On The Moon" is a collection of the original repetoire recorded with a group of outstanding musicians, members of Parisian scene and beyond. Together, they play a contemporary jazz that has its source in the song, Broadway and elsewhere, classical music, cinema … the waltz and the bolero meet the incursions in the rhythm'n blues, the tributes to the swing and hard bop.


Tracklist:

01 - A Train to Valparaiso
02 - Where Are You Now
03 - Fancy Folk Song
04 - Babel
05 - Berceuse pour un héros
06 - You Vs Karma
07 - No Pain No Gain
08 - Man on the Moon

Musicians:
Clément Simon - piano
Romain Cuoq - saxophone
Anthony Winzenrieth - guitar
Richard Métairon - double bass
Clément Cliquet - drums

Analyzed: Clément Simon / Man on the Moon
––––––––––––––––––––––––––––––––––––––––

DR Peak RMS Duration Track
––––––––––––––––––––––––––––––––––––––––
DR8 -0.04 dB -11.90 dB 3:19 01-A Train to Valparaiso
DR11 -0.04 dB -14.56 dB 4:46 02-Where Are You Now
DR9 -0.04 dB -10.61 dB 4:05 03-Fancy Folk Song
DR8 -0.04 dB -11.96 dB 5:48 04-Babel
DR11 -0.04 dB -14.73 dB 3:30 05-Berceuse pour un héros
DR9 -0.04 dB -11.00 dB 5:01 06-You Vs Karma
DR9 -0.04 dB -11.72 dB 5:46 07-No Pain No Gain
DR11 -0.04 dB -14.41 dB 5:50 08-Man on the Moon
––––––––––––––––––––––––––––––––––––––––

Number of tracks: 8
Official DR value: DR10

Samplerate: 88200 Hz
Channels: 2
Bits per sample: 24
Bitrate: 2836 kbps
Codec: FLAC
================================================================================


Thanks to the Original customer!