Tags
Language
Tags

Cliff Barrows - Directs The Victor Voices In Billy Graham's Crusade Favorites (1966/2016) [Official Digital Download 24/192]

Posted By: HDV
Cliff Barrows - Directs The Victor Voices In Billy Graham's Crusade Favorites (1966/2016) [Official Digital Download 24/192]

Cliff Barrows - Directs The Victor Voices In Billy Graham's Crusade Favorites (1966/2016)
FLAC (tracks) 24-bit/192 kHz | Time - 35:05 minutes | 1,38 GB
FLAC (tracks) 24-bit/96 kHz | Time - 35:05 minutes | 832 MB
Studio Master, Official Digital Download | Artwork: Front cover

Clifford Burton Barrows was a longtime music and program director for the Billy Graham Evangelistic Association. He had been a part of the Graham organization since 1949. Barrows was best known as the host of Graham's weekly Hour of Decision radio program, and the song leader and choir director for the crusade meetings.

Tracklist:

01 - Turn Your Eyes Upon Jesus
02 - My Lord Is Near Me All the Time
03 - Love Divine
04 - Every Time I Feel the Spirit
05 - I Never Walk Alone
06 - Medley: Saved by Grace / My Savior First of All
07 - Medley: He Whispered 'Peace Be Still' / Wonderful Peace
08 - He Hideth My Soul
09 - Leave It there
10 - Great Is Thy Faithfulness
11 - Like a River Glorious
12 - Jesus, Lover of My Soul

Analyzed: Cliff Barrows / Directs the Victor Voices In Billy Graham's Crusade Favorites
––––––––––––––––––––––––––––––––––––––––

DR Peak RMS Duration Track
––––––––––––––––––––––––––––––––––––––––
DR10 -3.79 dB -17.91 dB 3:16 01-Turn Your Eyes Upon Jesus
DR10 -2.86 dB -17.94 dB 2:55 02-My Lord Is Near Me All the Time
DR9 -3.52 dB -15.47 dB 2:20 03-Love Divine
DR10 -0.98 dB -16.15 dB 2:31 04-Every Time I Feel the Spirit
DR9 -2.63 dB -16.37 dB 3:17 05-I Never Walk Alone
DR10 -2.77 dB -16.68 dB 3:11 06-Medley: Saved by Grace / My Savior First of All
DR10 -3.30 dB -17.89 dB 2:45 07-Medley: He Whispered 'Peace Be Still' / Wonderful Peace
DR10 -2.02 dB -15.11 dB 2:51 08-He Hideth My Soul
DR10 -3.51 dB -16.69 dB 2:56 09-Leave It there
DR9 -2.82 dB -16.40 dB 3:18 10-Great Is Thy Faithfulness
DR10 -2.40 dB -16.54 dB 2:39 11-Like a River Glorious
DR10 -2.71 dB -16.92 dB 3:05 12-Jesus, Lover of My Soul
––––––––––––––––––––––––––––––––––––––––

Number of tracks: 12
Official DR value: DR10

Samplerate: 192000 Hz
Channels: 2
Bits per sample: 24
Bitrate: 5366 kbps
Codec: FLAC
================================================================================


Thanks to the Original customer!