Coleman Hawkins - Coleman Hawkins And His Confreres (1958/2014) [Official Digital Download 24-bit/192kHz]

Posted By: HDV
Coleman Hawkins - Coleman Hawkins And His Confreres (1958/2014) [Official Digital Download 24-bit/192kHz]

Coleman Hawkins - Coleman Hawkins And His Confreres (1958/2014)
FLAC (tracks) 24-bit/192 kHz | Time - 34:58 minutes | 1,52 GB
Studio Master, Official Digital Download | Artwork: Front cover

This unique 1958 recording is a collaboration between Coleman Hawkins and the Oscar Peterson Trio. Hawkins's voluminous, supple tenor sax sound, which had a great influence on the styles of musicians ranging from Dexter Gordon and Sonny Rollins up to Joe Lovano, is best heard on Honey Flower. The album features Ben Webster on tenor sax, Oscar Peterson on piano, Herb Ellis on guitar, Ray Brown on bass, Roy Eldridge on trumpet, Hank Jones on piano, George Duvivier on double bass and drummers Alvin Stoller and Mickey Sheen.

Tracklist:

01 - Maria
02 - Sunday
03 - Hanid
04 - Honey Flower
05 - Nabob

Produced by Norman Granz.
Recorded in New York City on February 7, 1958 (except "1" - Los Angeles, CA on October 16, 1957)

Musicians:
Coleman Hawkins – tenor saxophone
Roy Eldridge – trumpet
Ben Webster – tenor saxophone on "1"
Oscar Peterson – piano on "1"
Hank Jones - piano
Herb Ellis – guitar on "1"
Ray Brown - bass on "1"
George Duvivier – bass
Mickey Sheen - drums
Alvin Stoller – drums on "1"

Analyzed: Coleman Hawkins / Coleman Hawkins And His Confreres
––––––––––––––––––––––––––––––––––––––––

DR Peak RMS Duration Track
––––––––––––––––––––––––––––––––––––––––
DR14 -0.15 dB -16.49 dB 6:31 01-Maria
DR13 -1.33 dB -17.30 dB 5:20 02-Sunday
DR13 -0.07 dB -15.94 dB 4:53 03-Hanid
DR14 -0.92 dB -18.26 dB 8:42 04-Honey Flower
DR14 -0.86 dB -18.40 dB 9:32 05-Nabob
––––––––––––––––––––––––––––––––––––––––

Number of tracks: 5
Official DR value: DR13

Samplerate: 192000 Hz
Channels: 2
Bits per sample: 24
Bitrate: 5817 kbps
Codec: FLAC
================================================================================


Thanks to the Original customer!