Connie Smith - Sings Great Sacred Songs (1966/2016) [Official Digital Download 24/192]

Posted By: HDV
Connie Smith - Sings Great Sacred Songs (1966/2016) [Official Digital Download 24/192]

Connie Smith - Sings Great Sacred Songs (1966/2016)
FLAC (tracks) 24-bit/192 kHz | Time - 29:31 minutes | 1,24 GB
Studio Master, Official Digital Download | Artwork: Front cover

Connie Smith Sings Great Sacred Songs is the fourth studio album by American country music artist, Connie Smith. The album was released in June 1966 on RCA Victor Records and was produced by Bob Ferguson. This album was Connie Smith's first Gospel recording and would set the trend for a series of Gospel releases she would issue in the next decade. Upon the album's release, Connie Smith Sings Great Sacred Songs entered the Billboard Magazine charts, peaking at #19 on their Top Country Albums chart, becoming Smith's first LP not to reach the Top 10.

Like previous country music recordings, Connie Smith Sings Great Sacred Songs consisted of twelve tracks. Many of the album's songs were cover versions, including "In the Garden," "Just a Closer Walk with Thee," Jimmie Davis's "I Wouldn't Take Anything from My Journey Now," and Martha Carson's "Satisfied." The album also included a song written by Smith's producer, Bob Ferguson titled, "Wings of a Dove." The album itself was released on a 12-inch vinyl LP record, with six tracks on each side of the record. The album was reviewed by Allmusic, which gave the release four out of five stars, however an official review was not provided.

Tracklist:

01 - Satisfied
02 - When God Dips His Love in My Heart
03 - Farther Along
04 - Where Could I Go But to the Lord
05 - I Wouldn't Take Nothin' for My Journey
06 - I Saw a Man
07 - The Wayfaring Pilgrim
08 - In the Garden
09 - Wings of a Dove
10 - Keep on Holding to Those Nail Scarred Hands
11 - He Set Me Free
12 - Just a Closer Walk with Thee

Analyzed: Connie Smith / Sings Great Sacred Songs
––––––––––––––––––––––––––––––––––––––––

DR Peak RMS Duration Track
––––––––––––––––––––––––––––––––––––––––
DR11 -2.07 dB -15.69 dB 2:17 01-Satisfied
DR11 -1.48 dB -17.47 dB 2:22 02-When God Dips His Love in My Heart
DR11 -1.60 dB -16.40 dB 2:48 03-Farther Along
DR11 -2.62 dB -15.45 dB 2:16 04-Where Could I Go But to the Lord
DR11 -0.19 dB -15.01 dB 1:51 05-I Wouldn't Take Nothin' for My Journey
DR11 -3.80 dB -17.29 dB 2:45 06-I Saw a Man
DR11 -3.28 dB -17.49 dB 3:19 07-The Wayfaring Pilgrim
DR11 -3.30 dB -16.48 dB 2:45 08-In the Garden
DR11 -1.90 dB -16.41 dB 1:54 09-Wings of a Dove
DR11 -2.47 dB -16.29 dB 2:24 10-Keep on Holding to Those Nail Scarred Hands
DR11 -0.10 dB -14.72 dB 2:11 11-He Set Me Free
DR12 -2.16 dB -17.28 dB 2:41 12-Just a Closer Walk with Thee
––––––––––––––––––––––––––––––––––––––––

Number of tracks: 12
Official DR value: DR11

Samplerate: 192000 Hz
Channels: 2
Bits per sample: 24
Bitrate: 5387 kbps
Codec: FLAC
================================================================================


Thanks to the Original customer!