Cosmic Analog Ensemble - Les Sourdes Oreilles (2017) [Official Digital Download]

Posted By: HDV
Cosmic Analog Ensemble - Les Sourdes Oreilles (2017) [Official Digital Download]

Cosmic Analog Ensemble - Les Sourdes Oreilles (2017)
FLAC (tracks) 24-bit/44,1 kHz | Time - 43:38 minutes | 468 MB
Studio Master, Official Digital Download | Artwork: Front cover

Les Sourdes Oreilles (The Deaf Ears), is the next generation analog cinematic music from the 21 century. Following the sound of 70's cinematic jazz funk, this first 300 X 12" from Cosmic Analog Ensemble is the new My Bags emergency hammer glass breaker. "Les Sourdes Oreilles" is a long artisanal goldsmith work, cooking occidental classic jazz funk tradition into an afro oriental kitchen. It's what make this release so awesome, unique and necessary to our deaf ears.

Designed like a 70's movie soundtrack Graal, with the perfect hijacking artwork of Jerk 45, the album is a future now crate digging target. Built like a narrative scenario, scene after scene, each composition deploys his uniqueness, from the explosives intense actions of "Camille 3000", moments of suspence with "Sol Sur Sol" to running chase on "En Faction" and flying panoramic views of "Point De Bascule"… the compositions are depicting a rich range of situations, moods and intrigue.

Brilliantly composed, produced and interprated by Charif Megarbane, playing himself all instruments, track after track, each song is a one man piece of art. Chiseled drum breaks, evocative bass and stirring melodies are a part of a bigger plan, sprinkled with subtle sound effects. This is a heavy rare groove material. As you can imagine looking to the cover, this is all about legendary cinematic jazz funk, in the continuum of US, italian and french composers of the 70's like François de Roubaix, Piero Piccioni, David Axelrod, Piero Umiliani, Galt Mcdermot, Alain Goraguer, Janko Nilovic…

Tracklist:

01 - Pourparlers
02 - Les Sourdes Oreilles
03 - Camille 3000
04 - Point De Bascule
05 - Petite Fleur Industrielle
06 - Al Mushtari
07 - Après Vous
08 - Demi Lune
09 - Sol Sur Sol
10 - Résilience
11 - A La Dérive
12 - En Faction feat. Medline
13 - Le Dernier Mot
14 - La Nuée De Son Ame
15 - S'Aventurer
16 - Esprit Plus Que Matière

Analyzed: Cosmic Analog Ensemble / Les Sourdes Oreilles
––––––––––––––––––––––––––––––––––––––––

DR Peak RMS Duration Track
––––––––––––––––––––––––––––––––––––––––
DR8 -2.31 dB -13.32 dB 1:24 01-Pourparlers
DR8 -4.31 dB -14.79 dB 3:15 02-Les Sourdes Oreilles
DR8 -4.15 dB -14.77 dB 2:43 03-Camille 3000
DR10 -4.61 dB -16.67 dB 2:21 04-Point De Bascule
DR7 -5.32 dB -13.31 dB 2:51 05-Petite Fleur Industrielle
DR11 -1.64 dB -14.78 dB 3:32 06-Al Mushtari
DR8 -5.11 dB -15.44 dB 2:31 07-Après Vous
DR10 -4.23 dB -16.98 dB 2:12 08-Demi Lune
DR12 -1.65 dB -16.94 dB 3:07 09-Sol Sur Sol
DR12 -1.10 dB -16.02 dB 2:48 10-Résilience
DR10 -2.25 dB -15.36 dB 2:42 11-A La Dérive
DR12 -2.08 dB -15.72 dB 2:31 12-En Faction feat. Medline
DR9 -4.53 dB -15.44 dB 3:58 13-Le Dernier Mot
DR12 -2.13 dB -16.73 dB 3:24 14-La Nuée De Son Ame
DR11 -4.21 dB -16.47 dB 2:21 15-S'Aventurer
DR5 -0.24 dB -7.21 dB 1:58 16-Esprit Plus Que Matière
––––––––––––––––––––––––––––––––––––––––

Number of tracks: 16
Official DR value: DR9

Samplerate: 44100 Hz
Channels: 2
Bits per sample: 24
Bitrate: 1466 kbps
Codec: FLAC
================================================================================


Thanks to the Original customer!