Cowboy Junkies - Open (2001) PS3 ISO + Hi-Res FLAC

Posted By: HDAtall
Cowboy Junkies - Open (2001) PS3 ISO + Hi-Res FLAC

Cowboy Junkies - Open (2001) [Reissue 2002]
PS3 Rip | SACD ISO | DSD64 2.0 > 1-bit/2.8224 MHz | 49:33 minutes | Scans included | 1,5 GB
or FLAC (converted with foobar2000 to tracks) 24bit/96 kHz | Full Scans included | 1,13 GB

Open is an album by the Canadian band Cowboy Junkies, released in 2001. It was the band's third independent release after the end of their contract with Geffen Records, and the first of those to feature new material. The title of the album, Open, has dual meanings. One meaning is being open in a way that is dangerous, and the other meaning is the beneficial idea of open arms, open smile. Perennial art director David Houghton used an image of a venus flytrap to express both meanings. The plant is wide open, ready to catch its prey, being both open and threatening.

Cowboy Junkies have a sound, a vibe. There's no denying it. You can tell it's them within a few notes and each successive record seems to pick up right where the last one left off. Some, like The Trinity Sessions, are dark, moody, and mellow, like being coated in honey and draped in velvet. Others, take Pale Sun, Crescent Moon for example, seem downright energetic in comparison. Open is more in line with the first batch, though it has moments of near-enthusiastic revelry. With Alan Anton's plump (rather than phat) basslines, Peter Timmins' laid-back drumming, and Michael Timmins' dirty guitars to ride on, Margo Timmins contributes her trademark sensual, yet understated vocal performances. The whole gang sounds as good as ever. And, although he may be called a songwriter, Michael Timmins is more a true poet with musical inclinations. Full of wonder and romance, fear and passion, Open is simply the next chapter in his sublime book of heartfelt verse. The compassionate tenderness of "Thousand Year Prayer" contrasts nicely with the harmonica and feedback duel of "Dragging Hooks." And darn if "I'm So Open" doesn't bounce right along on a little groove. They've got it all here. If nothing else, this band is one of the most consistent around. Though album sales may not always reflect it, they continually deliver strong records that refuse to be faulted for anything other than being non-mainstream.

Tracklist:

01. I Did It All For You
02. Dragging Hooks (River Song Trilogy: Part III)
03. Bread and Wine
04. Upon Still Waters
05. Dark Hole Again
06. Thousand Year Prayer
07. I'm So Open
08. Small Swift Birds
09. Beneath the Gate
10. Close My Eyes

foobar2000 1.4.6 / Dynamic Range Meter 1.1.1

––––––––––––––––––––––––––––––––––––––––
Analyzed: Cowboy Junkies / Open
––––––––––––––––––––––––––––––––––––––––

DR Peak RMS Duration Track
––––––––––––––––––––––––––––––––––––––––
DR10 -8.68 dB -21.74 dB 5:07 01-I Did It All For You
DR10 -8.49 dB -22.07 dB 7:49 02-Dragging Hooks (River Song Trilogy: Part III)
DR10 -8.42 dB -19.98 dB 4:37 03-Bread and Wine
DR8 -7.45 dB -19.07 dB 3:23 04-Upon Still Waters
DR8 -8.31 dB -18.55 dB 7:43 05-Dark Hole Again
DR13 -7.44 dB -23.85 dB 4:17 06-Thousand Year Prayer
DR10 -7.88 dB -19.98 dB 4:10 07-I'm So Open
DR10 -8.70 dB -20.89 dB 3:47 08-Small Swift Birds
DR10 -9.12 dB -20.43 dB 4:08 09-Beneath the Gate
DR10 -7.62 dB -20.97 dB 4:31 10-Close My Eyes
––––––––––––––––––––––––––––––––––––––––

Number of tracks: 10
Official DR value: DR10

Samplerate: 2822400 Hz / PCM Samplerate: 176400 Hz
Channels: 2
Bits per sample: 1
Bitrate: 5645 kbps
Codec: DSD64


Thanks to PS³SACD!
Uncompressed SACD ISO size > 1,98 GB

Cowboy Junkies - Whites Off Earth Now
>