Tags
Language
Tags

Cream - Disraeli Gears (1967/2014) [Official Digital Download 24bit/192kHz]

Posted By:
Cream - Disraeli Gears (1967/2014) [Official Digital Download 24bit/192kHz]

Cream - Disraeli Gears (1967/2014)
FLAC (tracks) 24 bit/192 kHz | Time - 33:35 minutes | 1,59 GB
FLAC (tracks) 24 bit/96 kHz | Time - 33:35 minutes | 776 MB
Studio Master, Official Digital Download | Artwork: Front cover

"Disraeli Gears" was supergroup Cream's second album. It was a huge success, becoming their American breakthrough album and peaking at #4 on the American charts. The album hit #1 on the Australian albums chart and #5 in the UK. Featuring the classic hits "Strange Brew" and "Sunshine of Your Love", "Disraeli Gears" has become an iconic album in rock history. In 1999, the album was inducted into the Grammy Hall of Fame and in 2003 it was ranked #114 on Rolling Stone magazine's list of the 500 Greatest Albums of All Time. It was certified Gold in 1968 and Platinum in 1993 by the RIAA.

Cream teamed up with producer Felix Pappalardi for their second album, Disraeli Gears, a move that helped push the power trio toward psychedelia and also helped give the album a thematic coherence missing from the debut. This, of course, means that Cream get further away from the pure blues improvisatory troupe they were intended to be, but it does get them to be who they truly are: a massive, innovative power trio. The blues still courses throughout Disraeli Gears – the swirling kaleidoscopic "Strange Brew" is built upon a riff lifted from Albert King – but it's filtered into saturated colors, as it is on "Sunshine of Your Love," or it's slowed down and blurred out, as it is on the ominous murk of "Tales of Brave Ulysses." It's a pure psychedelic move that's spurred along by Jack Bruce's flourishing collaboration with Pete Brown. Together, this pair steers the album away from recycled blues-rock and toward its eccentric British core, for with the fuzzy freakout "Swlabr," the music hall flourishes of "Dance the Night Away," the swinging "Take It Back," and of course, the old music hall song "Mother's Lament," this is a very British record. Even so, this crossed the ocean and also became a major hit in America, because regardless of how whimsical certain segments are, Cream are still a heavy rock trio and Disraeli Gears is a quintessential heavy rock album of the '60s. Yes, its psychedelic trappings tie it forever to 1967, but the imagination of the arrangements, the strength of the compositions, and especially the force of the musicianship make this album transcend its time as well.

Tracklist:

01 - Strange Brew
02 - Sunshine Of Your Love
03 - World Of Pain
04 - Dance The Night Away
05 - Blue Condition
06 - Tales Of Brave Ulysses
07 - SWLABR
08 - We're Going Wrong
09 - Outside Woman Blues
10 - Take It Back
11 - Mother's Lament

Musicians:
Ginger Baker - drums, percussion, vocals
Jack Bruce - bass, piano, vocals, harmonica
Eric Clapton - lead guitar, rhythm guitar, 12-string guitar, vocals

Analyzed: Cream / Disraeli Gears
––––––––––––––––––––––––––––––––––––––––

DR Peak RMS Duration Track
––––––––––––––––––––––––––––––––––––––––
DR12 0.00 dB -13.03 dB 2:50 01-Strange Brew
DR11 0.00 dB -12.07 dB 4:13 02-Sunshine Of Your Love
DR12 0.00 dB -13.91 dB 3:06 03-World Of Pain
DR10 0.00 dB -13.22 dB 3:37 04-Dance The Night Away
DR11 0.00 dB -12.40 dB 3:33 05-Blue Condition
DR11 0.00 dB -12.54 dB 2:50 06-Tales Of Brave Ulysses
DR10 0.00 dB -11.99 dB 2:34 07-SWLABR
DR11 0.00 dB -15.77 dB 3:30 08-We're Going Wrong
DR11 0.00 dB -12.68 dB 2:28 09-Outside Woman Blues
DR12 0.00 dB -13.03 dB 3:09 10-Take It Back
DR11 -2.18 dB -17.53 dB 1:47 11-Mother's Lament
––––––––––––––––––––––––––––––––––––––––

Number of tracks: 11
Official DR value: DR11

Samplerate: 192000 Hz
Channels: 2
Bits per sample: 24
Bitrate: 5255 kbps
Codec: FLAC
================================================================================


Thanks to the Original customer!