Tags
Language
Tags

Cuarteto Casals - Haydn: Die sieben letzten Worte (2014) [Official Digital Download 24bit/96kHz]

Posted By:
Cuarteto Casals - Haydn: Die sieben letzten Worte (2014) [Official Digital Download 24bit/96kHz]

Cuarteto Casals - Haydn: Die sieben letzten Worte (2014)
FLAC (tracks) 24 bit/96 kHz | Time - 60:12 minutes | 1,03 GB
Studio Master, Official Digital Download | Artwork: Digital Booklet

Haydn composed his orchestral version of the Seven Last Words for Good Friday devotions in Cádiz. The task of creating a purely instrumental 'oratorio' consisting of seven contemplative slow movements was by no means an easy one; but the outcome was a work of sublime nobility. In its day, it was quite popular and inspired several transcriptions, including the version for string quartet heard here in a performance by the Barcelona-based Cuarteto Casals that is both stylistically sensitive and emotionally compelling.

Tracklist:

01 - Introduzione. Maestoso ed adagio
02 - Sonata I. Vater, vergib ihnen. Largo
03 - Sonata II. Fürwahr, ich sag' es dir. Grave e cantabile
04 - Sonata III. Frau, hier siehe deinen Sohn. Grave
05 - Sonata IV. Mein Gott, mein Gott, warum hast du mich verlassen? Largo
06 - Sonata V. Jesus rufet: Ach, mich dürstet! Adagio
07 - Sonata VI. Es ist vollbracht. Lento
08 - Sonata VII. Vater, in deine Hände empfehle ich meinen Geist. Largo
09 - Terremoto. Presto e con tutta la forza

Musicians:
Abel Tomàs Realp - 1st violin
Vera Martínez Mehner - 2nd violin
Jonathan Brown - viola
Arnau Tomàs Realp - cello

Analyzed: Cuarteto Casals / Haydn: Die sieben letzten Worte unseres Erlösers am Kreuze Hob.XX:02
––––––––––––––––––––––––––––––––––––––––

DR Peak RMS Duration Track
––––––––––––––––––––––––––––––––––––––––
DR14 -1.58 dB -21.01 dB 5:18 01-Introduzione. Maestoso ed adagio
DR15 -2.51 dB -22.64 dB 5:49 02-Sonata I. Vater, vergib ihnen. Largo
DR16 -3.51 dB -26.75 dB 8:22 03-Sonata II. Fürwahr, ich sag' es dir. Grave e cantabile
DR16 -1.42 dB -23.81 dB 9:24 04-Sonata III. Frau, hier siehe deinen Sohn. Grave
DR13 -1.47 dB -20.92 dB 6:39 05-Sonata IV. Mein Gott, mein Gott, warum hast du mich verlassen? Largo
DR13 -1.03 dB -20.37 dB 8:46 06-Sonata V. Jesus rufet: Ach, mich dürstet! Adagio
DR14 -0.78 dB -22.90 dB 7:39 07-Sonata VI. Es ist vollbracht. Lento
DR14 -3.45 dB -23.84 dB 6:30 08-Sonata VII. Vater, in deine Hände empfehle ich meinen Geist. Largo
DR13 -0.32 dB -15.43 dB 1:46 09-Terremoto. Presto e con tutta la forza
––––––––––––––––––––––––––––––––––––––––

Number of tracks: 9
Official DR value: DR14

Samplerate: 96000 Hz
Channels: 2
Bits per sample: 24
Bitrate: 2627 kbps
Codec: FLAC
================================================================================


Thanks to the Original customer!