Cymin Samawatie, Cyminology - Phoenix (2015) [Official Digital Download 24-bit/96 kHz]

Posted By: HDV
Cymin Samawatie, Cyminology - Phoenix (2015) [Official Digital Download 24-bit/96 kHz]

Cymin Samawatie, Cyminology - Phoenix (2015)
FLAC (tracks) 24-bit/96 kHz | Time - 49:41 minutes | 1017 MB
Studio Master, Official Digital Download | Artwork: Digital booklet

German-Iranian singer Cymin Samawatie and her band Cyminology continue on their unique course, allowing the subtle yet dynamic sounds and rhythms of Persian poetry to influence their compositions and improvisation. Phoenix is their third disc for ECM, like its predecessors produced by Manfred Eicher at Oslo’s Rainbow Studio.

The core unit of Cymin, pianist Benedikt Jahnel, bassist Ralf Schwarz and drummer Ketan Bhatti are joined, for the first time on record, by Martin Stegner, the Berlin Philharmonic violist who has been a frequent collaborator since 2011. The viola, the string instrument closest to the human voice, becomes a kind of second singer here, extending the sense of East/West dialog alive in the music. The album is dedicated to the memory of Forough Farrokhzaad, the courageous and outspoken 20th century Iranian poet. Cymin sets some of Farrokhzaad’s verse here, alongside her own lyrics, classic Sufi poetry by Hafiz, and verse of Nima Yushij, often considered the father of modern Persian poetry. Jahnel, Schwarz and Bahti contribute as co-composers on several pieces.

Tracklist:

01 - Aaftaab
02 - Che Gune Ast
03 - Baraaye Ranj
04 - Gozaraan
05 - Harire Buse
06 - Talaash Makon
07 - Dishab
08 - Phoenix, Pt. 1
09 - Phoenix, Pt. 2
10 - Baraaye To

Produced by Manfred Eicher. Engineered by Jan Erik Kongshaug.
Recorded in March 2014 at Rainbow Studio, Oslo, Norway.

Musicians:
Cymin Samawatie - vocals
Benedikt Jahnel - piano
Ralf Schwarz - double bass
Ketan Bhatti - drums, percussio
Martin Stegner - viola

Analyzed: Cyminology / Phoenix
––––––––––––––––––––––––––––––––––––––––

DR Peak RMS Duration Track
––––––––––––––––––––––––––––––––––––––––
DR12 -0.10 dB -15.09 dB 6:40 01-Aaftaab
DR12 -0.10 dB -14.24 dB 5:05 02-Che Gune Ast
DR11 -0.70 dB -16.69 dB 4:00 03-Baraaye Ranj
DR13 -0.10 dB -17.61 dB 7:57 04-Gozaraan
DR14 -0.20 dB -19.38 dB 4:38 05-Harire Buse
DR13 -3.82 dB -20.31 dB 4:27 06-Talaash Makon
DR14 -0.10 dB -17.16 dB 5:06 07-Dishab
DR12 -3.00 dB -20.84 dB 3:01 08-Phoenix, Pt. 1
DR13 -0.32 dB -17.89 dB 4:39 09-Phoenix, Pt. 2
DR14 -0.10 dB -18.02 dB 4:08 10-Baraaye To
––––––––––––––––––––––––––––––––––––––––

Number of tracks: 10
Official DR value: DR13

Samplerate: 96000 Hz
Channels: 2
Bits per sample: 24
Bitrate: 2836 kbps
Codec: FLAC
================================================================================


Thanks to the Original customer!