Cyrille Aimee - It's A Good Day (2014) [Official Digital Download 24/88]

Posted By: HDV
Cyrille Aimee - It's A Good Day (2014) [Official Digital Download 24/88]

Cyrille Aimée - It's A Good Day (2014)
FLAC (tracks) 24-bit/88,2 kHz | Time - 43:03 minutes | 885 MB
Studio Master, Official Digital Download | Artwork: Digital booklet

It's A Good Day is the major label debut by the widely acclaimed young jazz singer Cyrille Aimée—yet another step forward for the rapidly rising vocalist. Winner of both the Montreux Jazz Festival’s Vocal Competition and the Sarah Vaughan International Vocal Competition, Aimée explores a range of musical styles, eras, continents and moods on It's A Good Day (Mack Avenue) with a singular voice on inventive arrangements, and produced by Fabrice DuPont (Shakira, Jennifer Lopez).

Cyrille Aimée's sixth solo album and debut for the Mack Avenue label, 2014's It's a Good Day, showcases her lithe vocal prowess and eclectic, expressive jazz style. Backing Aimée here are her core sidemen of bassist Sam Anning and drummer Rajiv Jayaweera, along with a handful of guitar collaborators including Michael Valeanu, Adrien Moignard, and Guilherme Monteiro. A native of France, Aimée first became interested in jazz by performing Django Reinhardt songs with local Gypsy swing artists. Later, while honing her craft in New York City, she branched out into Brazilian bossa nova, Latin rhythms and, of course, jazz standards. She brings all of this talent and experience to bear on It's a Good Day. Included here are exuberant originals and inspired cover songs including takes on such classics as "Where or When," "Caravan," "Love Me or Leave Me," and "Tricotism".

Tracklist:

01 - Where or When
02 - It's a Good Day
03 - Bamboo Shoots
04 - Twenty-Eight
05 - Caravan
06 - Nuit Blanche
07 - Young at Heart
08 - Off the Wall
09 - Love Me or Leave Me
10 - One Way Ticket
11 - Pourtant
12 - All Love
13 - Tricotism

Musicians:
Cyrille Aimée - vocals
Adrien Moignard - guitar
Guilherme Monteiro - guitar
Michael Valeanu - guitar
Sam Anning - bass
Rajiv Jayaweera - drums

Analyzed: Cyrille Aimee / It's a Good Day
––––––––––––––––––––––––––––––––––––––––

DR Peak RMS Duration Track
––––––––––––––––––––––––––––––––––––––––
DR10 -0.58 dB -12.79 dB 2:47 01-Where or When
DR9 -0.06 dB -11.47 dB 2:29 02-It's a Good Day
DR8 -0.56 dB -11.26 dB 3:52 03-Bamboo Shoots
DR10 -0.60 dB -12.89 dB 3:20 04-Twenty-Eight
DR8 -0.55 dB -10.88 dB 3:16 05-Caravan
DR9 -0.52 dB -12.14 dB 4:12 06-Nuit Blanche
DR11 -0.60 dB -14.12 dB 3:30 07-Young at Heart
DR8 -0.55 dB -10.77 dB 3:03 08-Off the Wall
DR8 -0.58 dB -9.99 dB 2:34 09-Love Me or Leave Me
DR8 -0.58 dB -13.10 dB 4:59 10-One Way Ticket
DR9 -0.59 dB -11.59 dB 3:32 11-Pourtant
DR13 -0.60 dB -17.53 dB 3:04 12-All Love
DR10 -0.60 dB -13.10 dB 2:25 13-Tricotism
––––––––––––––––––––––––––––––––––––––––

Number of tracks: 13
Official DR value: DR9

Samplerate: 88200 Hz
Channels: 2
Bits per sample: 24
Bitrate: 2728 kbps
Codec: FLAC
================================================================================


Thanks to the Original customer!