Tags
Language
Tags

Dadawa - Voice From The Sky (1997) [Reissue 2017] SACD ISO + DSD64 + Hi-Res FLAC

Posted By: HDAtall
Dadawa - Voice From The Sky (1997) [Reissue 2017] SACD ISO + DSD64 + Hi-Res FLAC

Dadawa - Voice From The Sky (1997) [Reissue 2017]
SACD Rip | SACD ISO | DST64 2.0 > 1-bit/2.8224 MHz | 41:28 minutes | Front, Scans NOT included |680 MB
or DSD64 Stereo (from SACD-ISO to Tracks.dsf) > 1-bit/2.8224 MHz | Front, Scans NOT included | 1,04 GB
or FLAC (carefully converted & encoded to tracks) 24bit/44,1 kHz | Front, Scans NOT included | 456 MB

Voices from the Sky (央金玛) is the third studio album by Chinese singer Dadawa (music by He Xuntian). The album is a follow up to her second album Sister Drum, which met with controversy, critical and commercial success.

Sister Drum was enough of a success to warrant the creation of Voices From the Sky – but just like the earlier album, Voices makes a listener confront the distinction between rough reality and art. Setting that aside for the moment, Dadawa and He Xuntian do a fair enough job at continuing the spirit of the earlier album without simply rehashing the experience in its entirety. Lyrical inspiration and general ambience remains the same, with Tibet, its landscape and history being the canvas from which singer and musician work to create Voices' seven songs. Full credits appear for all participating performers this time around, indicating that two choirs as well as players on everything from bamboo flute to ban hu helped in the creation of the lovely arrangements, overseen as before by He. Dadawa herself takes a more upfront role in the singing than before from the start, while the pace of the songs is just that subtly a bit more quicker, in contrast to the generally slow, awe-inspiring swoop of Sister Drum at its start. Lyrically He takes the lion's share of the writing this time around, though other sources creep in – "The Sixth Dalai Lama's Love Song" indeed draws its words from that very person, Tsangyang Gyatso, a noted love poet in Tibetan history. The sense of Dadawa being something of a Chinese Enya crops up again on certain songs, such as her multitracked vocals on "The Believer," but the overall concept and project is still something unique. All this said, though, Voices still can't disguise the hidden questions of what can or can't be talked about when it comes to officially approved art. "The Believer" itself, for itself, is described not a love song but 'a soul of a believer crying out against the strictures of religious dogma' -which when one considers the Peking government's continuing campaign to eradicate the power of the lamas in Tibet has an unfortunately chilling corollary.

Tracklist:

01. Melodious Goddess
02. Ballad Of Lhasa
03. The Believer
04. Seven Drums
05. Himalayans
06. The Sixth Dalai Lama's Love Song
07. Question From The Other Shore

foobar2000 1.6.8 / Dynamic Range Meter 1.1.1

––––––––––––––––––––––––––––––––––––––––
Analyzed: Dadawa / ?
––––––––––––––––––––––––––––––––––––––––

DR Peak RMS Duration Track
––––––––––––––––––––––––––––––––––––––––
DR12 -5.70 dB -21.96 dB 6:27 01-1_Melodious Goddess
DR12 -5.80 dB -22.59 dB 5:05 02-2_Bal;land of Lhasa
DR12 -5.61 dB -19.96 dB 5:16 03-3_The Believer
DR10 -5.66 dB -19.59 dB 5:56 04-4_Seven Drums
DR11 -5.89 dB -20.46 dB 5:08 05-5_Himalayans
DR10 -5.77 dB -20.86 dB 7:10 06-6_The Sixth Dalai Lama's Love Song
DR11 -5.81 dB -20.84 dB 6:27 07-7_Question from the Other Shore
––––––––––––––––––––––––––––––––––––––––

Number of tracks: 7
Official DR value: DR11

Samplerate: 2822400 Hz / PCM Samplerate: 176400 Hz
Channels: 2
Bits per sample: 1
Bitrate: 5645 kbps
Codec: DST64


Thanks to the Original ripper!
Uncompressed SACD ISO size > 659 MB
>