Tags
Language
Tags

Dana Winner - 10 Jaar: Het allerbeste van Dana Winner (2003) MCH SACD ISO + Hi-Res FLAC

Posted By: HDAtall
Dana Winner - 10 Jaar: Het allerbeste van Dana Winner (2003) MCH SACD ISO + Hi-Res FLAC

Dana Winner - 10 Jaar: Het allerbeste van Dana Winner (2003)
SACD Rip | SACD ISO | DST64 2.0 & 5.1 > 1-bit/2.8224 MHz | 64:40 minutes | Scans included | 4,6 GB
or FLAC 2.0 Stereo(converted with foobar2000 to tracks) 24bit/96 kHz | Full Scans included | 1,61 MB
Features Stereo and Multichannel Surround Sound / EMI Music Belgium # 593678-2

Dana Winner is the stage name of Chantal Vanlee. She is a Belgian singer who is famous especially in Flanders and the Netherlands. After her first success, Dana Winner also became well known in Germany and South Africa. At the end of the 1990s, she began singing in other languages. "10 Jaar: Het allerbeste van Dana Winner" ("10 Years: The Best of" compilation) features the songs, performed mostly on her native language.

Tracklist:

01. Zeven regenbogen
02. Ik zing vandaag een lied
03. Hopeloos en verloren
04. Westenwind
05. Duizenden mooie dromen
06. Geef de kinderen een wereld
07. Mijn hart zingt van liefde
08. De Oude Man en de zee
09. Regen van geluk
10. Waar is het gevoel
11. Ik hou van jou
12. Ik doe het voor jou
13. Never never never / Grande grande grande
14. Moonlight Shadow
15. Conquest of paradise
16. Iets heeft je zachtjes aangeraakt
17. Everything I do (I do it for you) [Bonus Track]

Digitally Recorded and Mixed to Multichannel & Stereo DSD in Galaxy Studios, Mol, Belgium.
Mastered by Ronald Prent at Galaxy Studios, Mol, Belgium.

foobar2000 1.5.4 / Dynamic Range Meter 1.1.1

––––––––––––––––––––––––––––––––––––––––
Analyzed: Dana Winner / 10 JAAR - Het allerbeste van Dana Winner
––––––––––––––––––––––––––––––––––––––––

DR Peak RMS Duration Track
––––––––––––––––––––––––––––––––––––––––
DR12 -9.18 dB -25.11 dB 4:13 01-Zeven regenbogen
DR12 -7.46 dB -24.62 dB 3:23 02-Ik zing vandaag een lied
DR11 -8.07 dB -25.14 dB 3:51 03-Hopeloos en verloren
DR13 -7.86 dB -25.50 dB 3:46 04-Westenwind
DR11 -7.46 dB -23.25 dB 3:57 05-Duizenden mooie dromen
DR12 -6.56 dB -23.86 dB 3:53 06-Geef de kinderen een wereld
DR13 -6.88 dB -23.59 dB 2:31 07-Mijn hart zingt van liefde
DR13 -6.30 dB -23.44 dB 3:41 08-De Oude Man en de zee
DR12 -6.97 dB -23.71 dB 4:07 09-Regen van geluk
DR11 -6.92 dB -24.60 dB 3:43 10-Waar is het gevoel
DR12 -8.05 dB -25.85 dB 3:34 11-Ik hou van jou
DR13 -7.98 dB -24.28 dB 3:55 12-Ik doe het voor jou
DR12 -8.28 dB -24.27 dB 3:43 13-Never never never / Grande grande grande
DR11 -7.61 dB -23.32 dB 4:25 14-Moonlight Shadow
DR12 -7.59 dB -23.44 dB 4:07 15-Conquest of paradise
DR13 -6.78 dB -24.01 dB 3:42 16-Iets heeft je zachtjes aangeraakt
DR12 -5.94 dB -24.10 dB 4:10 17-Bonus: Everything I do (I do it for you)
––––––––––––––––––––––––––––––––––––––––

Number of tracks: 17
Official DR value: DR12

Samplerate: 2822400 Hz / PCM Samplerate: 176400 Hz
Channels: 6
Bits per sample: 1
Bitrate: 16934 kbps
Codec: DST64
================================================================================

––––––––––––––––––––––––––––––––––––––––
Analyzed: Dana Winner / 10 JAAR - Het allerbeste van Dana Winner
––––––––––––––––––––––––––––––––––––––––

DR Peak RMS Duration Track
––––––––––––––––––––––––––––––––––––––––
DR12 -7.49 dB -22.32 dB 4:13 01-Zeven regenbogen
DR9 -8.06 dB -20.23 dB 3:23 02-Ik zing vandaag een lied
DR10 -7.69 dB -20.18 dB 3:51 03-Hopeloos en verloren
DR11 -5.35 dB -19.12 dB 3:46 04-Westenwind
DR10 -6.70 dB -18.97 dB 3:57 05-Duizenden mooie dromen
DR10 -8.25 dB -20.66 dB 3:53 06-Geef de kinderen een wereld
DR10 -7.88 dB -19.90 dB 2:31 07-Mijn hart zingt van liefde
DR11 -7.24 dB -19.80 dB 3:41 08-De Oude Man en de zee
DR9 -6.91 dB -18.75 dB 4:07 09-Regen van geluk
DR8 -8.76 dB -20.24 dB 3:43 10-Waar is het gevoel
DR12 -5.51 dB -20.49 dB 3:34 11-Ik hou van jou
DR9 -7.08 dB -17.92 dB 3:55 12-Ik doe het voor jou
DR9 -7.84 dB -19.90 dB 3:43 13-Never never never / Grande grande grande
DR9 -7.40 dB -19.45 dB 4:25 14-Moonlight Shadow
DR9 -7.39 dB -19.84 dB 4:07 15-Conquest of paradise
DR11 -7.00 dB -20.15 dB 3:42 16-Iets heeft je zachtjes aangeraakt
DR10 -6.61 dB -19.90 dB 4:10 17-Bonus: Everything I do (I do it for you)
––––––––––––––––––––––––––––––––––––––––

Number of tracks: 17
Official DR value: DR10

Samplerate: 2822400 Hz / PCM Samplerate: 176400 Hz
Channels: 2
Bits per sample: 1
Bitrate: 5645 kbps
Codec: DST64


Thanks to grillbrill!
Uncompressed SACD ISO size > 4,33 GB

DANA WINNER on SACDs
>