Danish National SO, Michael Schonwandt - Klenau: Symphony No. 9 (2016) [Official Digital Download 24-bit/96kHz]

Posted By: HDV
Danish National SO, Michael Schonwandt - Klenau: Symphony No. 9 (2016) [Official Digital Download 24-bit/96kHz]

Danish National Symphony Orchestra, Michael Schønwandt - Klenau: Symphony No.9 (2016)
FLAC (tracks) 24-bit/96 kHz | Time - 88:39 minutes | 1,59 GB
Studio Master, Official Digital Download | Artwork: Digital booklet

Paul von Klenau's (1883-1946) grandiose Ninth Symphony in eight movements was composed in Copenhagen 1945 as his last major work; an extraordinary fusion of a Requiem with Latin text and a traditional symphony for orchestra, choir and four soloists. The manuscript then lay unknown for more than fifty years until it appeared in the 2001 discovery of a large collection of Klenau manuscripts in Vienna, and not until March 2014 after a thorough editing by The Royal Library in Copenhagen did it receive its first performance by the Danish National Symphony Orchestra conducted by Michael Schønwandt. This world premiere recording presents the full symphony; a magnificent opus of both tonal, atonal and even twelve-tone passages, very far removed from the style that predominated in the post-Nielsen Danish music of the 1940s.

Accomplished but almost forgotten Danish composer Paul von Klenau (1853–1945) left Denmark and emigrated to Germany of all places in the 30s - he was just in time for the beginnings of WW II. He seemed to be quite ambivalent about Hitler’s ascension. Before the war he became involved with Schoenberg and company, but only became entirely enslaved by Degenerate Art around that time. Like so many composers, he used the techniques, mostly melodically (never harmonically), as he saw fit. For the most part, his music is traditionally tonal with unexpected voice leadings in a style palatable to unsoiled German listeners.

There are actually 10 completed symphonies, but he renamed the last one Symphony 9 in honor of Beethoven (but not in honor of people who can count). It was written at the end of the war and his life (1945). It’s essentially a Requiem blended with an overall symphonic concept. The text is expanded with a line reminiscent of Kant about the stars being above philosophy. The work is filled with choral passages reminiscent of Beethoven, with plenty of skillful fugal writing. It is considered the longest symphony written by a Danish composer. Any influence of Mahler is conspicuously absent, but Bruckner is omnipresent.

This is basically the standard four-movement romantic symphony with a robust sonata form opening with plenty of counterpoint, a Brucknerian scherzo complete with rustic trio, a rousing Teutonic march (which might disturb some), and an expansive Brucknerian Adagio, with some pregnant references to that composer’s Ninth. The finale states that “dreaming of heroic deeds we wish to take up arms while fighting for peace”. Interpreting this might or might not prove the key to a potentially sinister background of this work, but in the end this is an impressive example of the genre. One could almost call it a neglected masterpiece if it weren’t for some of the background implications. Its odd but interesting blending of genres and influences make it a must for the curious.

Tracklist:

01 - I. Allegro
02 - II. Requiem. Andante
03 - III. Allegro molto vivace
04 - IV. Andante. 'Estne haec vitae discrepantia sempiterna'
05 - V. Allegro (Tempo di marcia, vivace)
06 - VI. Adagio
07 - VII. Misericordia. Sehr leidenschaftlich bewegt
08 - VIII. Ruhige Viertel. 'Stella lucet per coelum'

Produced & Edited by Chris Hazell. Engineered< Mixed & Mastered by Jan Oldrup.
Recorded on March 20-21, 2014 at DR Koncerthuset, Copenhagen, Denmark.

Musicians:
Steffen Bruun - bass
Cornelia Ptassek - soprano
Susanne Resmark - mezzo-soprano
Michael Weinius - tenor
Danish National Concert Choir
Danish National Symphony Orchestra
Michael Schønwandt - conductor

Analyzed: Cornelia Ptassek, Susanne Resmark, Michael Weinius, Steffen Bruun, Danish National Concert Choir, Danish National Symphony Orchestra, Michael Schønwandt / Klenau: Symphony No. 9 (1945)
––––––––––––––––––––––––––––––––––––––––

DR Peak RMS Duration Track
––––––––––––––––––––––––––––––––––––––––
DR12 -0.32 dB -16.97 dB 9:24 01-Symphony No. 9 (1945): I. Allegro
DR12 -0.42 dB -18.72 dB 12:38 02-Symphony No. 9 (1945): II. Requiem. Andante
DR12 -0.40 dB -17.47 dB 9:24 03-Symphony No. 9 (1945): III. Allegro molto vivace
DR13 -0.49 dB -18.41 dB 16:48 04-Symphony No. 9 (1945): IV. Andante. 'Estne haec vitae discrepantia sempiterna'
DR12 -0.25 dB -17.73 dB 10:21 05-Symphony No. 9 (1945): V. Allegro (Tempo di marcia, vivace)
DR14 -0.43 dB -20.59 dB 10:02 06-Symphony No. 9 (1945): VI. Adagio
DR11 -0.37 dB -15.48 dB 1:25 07-Symphony No. 9 (1945): VII. Misericordia. Sehr leidenschaftlich bewegt
DR11 -0.24 dB -16.12 dB 18:37 08-Symphony No. 9 (1945): VIII. Ruhige Viertel. 'Stella lucet per coelum'
––––––––––––––––––––––––––––––––––––––––

Number of tracks: 8
Official DR value: DR12

Samplerate: 96000 Hz
Channels: 2
Bits per sample: 24
Bitrate: 2514 kbps
Codec: FLAC
================================================================================


Thanks to the Original customer!