Dans Les Arbres - Canopee (2012) [Official Digital Download]

Posted By: HDV
Dans Les Arbres - Canopee (2012) [Official Digital Download]

Dans Les Arbres - Canopée (2012)
FLAC (tracks) 24-bit/44,1 kHz | Time - 49:24 minutes | 478 MB
Studio Master, Official Digital Download | Artwork: Digital booklet

On this second release, the unique improvising quartet Dans Les Arbres continues to fine tune its artistic concept, patiently traversing its luminous planes of sound with a rare sense of accord and shared responsibilities. The combination of its unorthodox sound sources, including Xavier Charles’s clarinet harmonics, Christian Wallumrød’s prepared piano, Ivar Grydeland’s bowed banjo and Ingar Zach’s differentiated gran cassa leads to free playing and spontaneous group composing in a class of its own, resulting in music that unfolds with poetic logic and unhurried pace.

Dans les arbres – the unique improvising quartet comprising three Norwegians and a Frenchman – continues to fine-tune its artistic concept, patiently traversing its luminous planes of sound with a rare sense of accord, and shared responsibilities. The combination of its unorthodox sound sources, including Charles’s clarinet harmonics, Wallumrød’s prepared piano, Grydeland’s bowed banjo, and Zach’s differentiated gran cassa playing has led to free playing and spontaneous group-composing in a class of its own. The group’s ECM debut generated many rave reviews, with England’s The Wire declaring “There’s no end to the delights of this quite magical disc.” The magic is intact on “Canopée”, recorded in June 2010 and April 2011 in Oslo.

Tracklist:

01 - La fumée
02 - L'émanation
03 - La vapeur
04 - La buée
05 - L'éther
06 - Le vertige
07 - L'immatériel
08 - Les cimes
09 - La brume
10 - La transparence

Produced by Dans les arbres. Engineered by Thomas Hukkelberg.
Recorded in June 2010 at Biermannsgården and April 2011 at Cafeteatret, Oslo.

Musicians:
Xavier Charles - clarinet, harmonica
Ivar Grydeland - electric guitar, banjo, sruti box
Christian Wallumrød - prepared piano, harmonium
Ingar Zach - gran cassa, percussion

Analyzed: Dans Les Arbres / Canopée
––––––––––––––––––––––––––––––––––––––––

DR Peak RMS Duration Track
––––––––––––––––––––––––––––––––––––––––
DR10 -2.58 dB -17.65 dB 5:15 01-La fumée
DR11 -4.01 dB -19.43 dB 3:52 02-L'émanation
DR12 -2.30 dB -16.90 dB 7:10 03-La vapeur
DR10 -0.30 dB -17.35 dB 1:58 04-La buée
DR7 -2.27 dB -12.94 dB 4:25 05-L'éther
DR10 -2.75 dB -16.93 dB 1:55 06-Le vertige
DR11 -2.77 dB -18.50 dB 9:22 07-L'immatériel
DR9 -2.48 dB -16.28 dB 7:56 08-Les cimes
DR7 -7.97 dB -20.53 dB 1:20 09-La brume
DR13 -2.55 dB -22.63 dB 6:11 10-La transparence
––––––––––––––––––––––––––––––––––––––––

Number of tracks: 10
Official DR value: DR10

Samplerate: 44100 Hz
Channels: 2
Bits per sample: 24
Bitrate: 1147 kbps
Codec: FLAC
================================================================================


Thanks to the Original customer!