Dave Brubeck - Classical Brubeck (2x SACD, 2003) [2.0 & 5.1] PS3 ISO + Hi-Res FLAC

Posted By: HDAtall
Dave Brubeck - Classical Brubeck (2x SACD, 2003) [2.0 & 5.1] PS3 ISO + Hi-Res FLAC

Dave Brubeck - Classical Brubeck (2x SACD, 2003) [2.0 & 5.1]
PS3 Rip | SACD ISO | DST64 2.0 & 5.1 > 1-bit/2.8224 MHz | 131:53 minutes | Scans included | 8,38 GB
or FLAC 2.0 (converted with foobar2000 to tracks) 24bit/88,2 kHz | 131:59 mins | Scans included | 2,5 GB
with London Symphony Orchestra and London Voices / Conducted by Russell Gloyd / Telarc # SACD-60621-A/B

This double-disc set is a determined effort to clear the shelf and record as much of Dave Brubeck's classical output as possible while the composer was still around to participate and guide the performers' hands. The project was done in only four sessions at London's Abbey Road Studios without the benefit of tuneup concerts; conductor Russell Gloyd says that the London Symphony Orchestra and London Voices were practically sight-reading throughout…

As such, it's a miracle that these performances turned out as well as they did – or perhaps not, since Gloyd is Brubeck's chosen interpreter (and manager) and these busy London professionals are used to mastering new material quickly. Almost all of the set is taken up by three big sacred choral compositions, which for all of their rampant eclecticism bear the same unmistakable stamp of Brubeck's harmonic signatures and all-embracing personality. Beloved Son (1978), an Easter oratorio, has choral passages that might have been inspired by those in J.S. Bach's St. Matthew Passion – which is roughly about the same subject – but also some militancy, a free-form episode from the Dave Brubeck Quartet (which they never do when playing jazz in concert), and a rocking gospel workout on the concluding He Is Risen.

The Pange Lingua Variations (1983) is a somewhat more diffuse work based on Gregorian chants, but here you can hear the variations principle at work throughout the score, especially when the quartet comments on the material. Archaic-sounding passages abound – the dreaded parallel fourths and fifths that composition teachers warn against, another example of Brubeck breaking the rules of choral writing for his own expressive purposes. Voice of the Holy Spirit (1985) is the longest of the pieces here, about 52 minutes, and again Brubeck doesn't let anything inhibit his choice of idiom – a Latin-ish break for the quartet, a gaudy conclusion to Be Strong in the Lord, even a universal children's taunt as the basis of When I Was a Child. Finally, as a brief afterleaf, listeners whisk ahead to 2001, where the then-80-year-old composer looks back with unexpected poignancy in Regret, a lush bittersweet elegy for strings with skillfully wrought counterlines for cellos, capped near the close by a solo from Brubeck in the same vein. Despite his explanation in the booklet ("Perhaps it is an emotion unique to someone who has lived as many decades as I"), one still wonders what moved Brubeck to write this anguished piece, as he seems to have lived an exceptionally fulfilling life. This outpouring of creativity is treated to excellent, spacious Abbey Road SACD sound, deeper than the stereo CD version (which is more brightly lit), with only studio ambience in the rear speakers. And would you believe there is much more unrecorded classical Brubeck on the shelf?

Tracklist:

Disc 1:
01. Voice of the Holy Spirit : Preface
02. Voice of the Holy Spirit : Full Authority
03. Voice of the Holy Spirit : Witnesses
04. Voice of the Holy Spirit : Pentecost
05. Voice of the Holy Spirit : Tongues of Fire
06. Voice of the Holy Spirit : New Wine
07. Voice of the Holy Spirit : Peter's Sermon
08. Voice of the Holy Spirit : Silver and Gold
09. Voice of the Holy Spirit : Greater Gifts
10. Voice of the Holy Spirit : Though I Speak with the Tongues
11. Voice of the Holy Spirit : When I Was a Child
12. Voice of the Holy Spirit : For Those Who Love God
13. Voice of the Holy Spirit : Be Strong in the Lord
14. Voice of the Holy Spirit : Benediction
15. Regret

Disc 2:
01. Beloved Son : Abba Father
02. Beloved Son : Eli
03. Beloved Son : Rabboni
04. Pange Lingua Variations : Pange Lingua
05. Pange Lingua Variations : I. Sing my tongue sing
06. Pange Lingua Variations : Nobis datus
07. Pange Lingua Variations : II. To us is given
08. Pange Lingua Variations : In supremae
09. Pange Lingua Variations : III. Thus on the night
10. Pange Lingua Variations : Verbum caro
11. Pange Lingua Variations : IV. The word made flesh
12. Pange Lingua Variations : Tantum ergo
13. Pange Lingua Variations : V. Let us bow down
14. Pange Lingua Variations : Brass Chorale
15. Pange Lingua Variations : Meditation
16. Pange Lingua Variations : Bow down (Improvisation)
17. Pange Lingua Variations : Interlude
18. Pange Lingua Variations : VI. Praise to the Father!

foobar2000 1.2.1 / Dynamic Range Meter 1.1.1

––––––––––––––––––––––––––––––––––––––––
Analyzed: Dave Brubeck Quartet / London Symphony Orchestra / London Voices / Russell Gloyd / Classical Brubeck
––––––––––––––––––––––––––––––––––––––––

DR Peak RMS Duration Track
––––––––––––––––––––––––––––––––––––––––
DR11 -13.06 dB -37.61 dB 1:42 01-Voice of the Holy Spirit : Preface
DR14 -6.93 dB -31.89 dB 4:19 02-Voice of the Holy Spirit : Full Authority
DR16 -6.89 dB -31.54 dB 7:00 03-Voice of the Holy Spirit : Witnesses
DR13 -5.39 dB -29.98 dB 2:05 04-Voice of the Holy Spirit : Pentecost
DR14 -6.01 dB -28.55 dB 8:10 05-Voice of the Holy Spirit : Tongues of Fire
DR14 -5.49 dB -27.51 dB 5:40 06-Voice of the Holy Spirit : New Wine
DR16 -7.49 dB -34.01 dB 3:53 07-Voice of the Holy Spirit : Peter's Sermon
DR18 -6.41 dB -33.14 dB 3:56 08-Voice of the Holy Spirit : Silver and Gold
DR12 -8.94 dB -32.98 dB 2:35 09-Voice of the Holy Spirit : Greater Gifts
DR16 -8.77 dB -35.44 dB 3:40 10-Voice of the Holy Spirit : Though I Speak with the Tongues
DR16 -8.02 dB -31.47 dB 5:47 11-Voice of the Holy Spirit : When I Was a Child
DR12 -18.53 dB -39.67 dB 1:46 12-Voice of the Holy Spirit : For Those Who Love God
DR12 -4.64 dB -24.49 dB 2:08 13-Voice of the Holy Spirit : Be Strong in the Lord
DR11 -15.32 dB -37.58 dB 0:57 14-Voice of the Holy Spirit : Benediction
DR14 -12.04 dB -34.75 dB 8:07 15-Regret
––––––––––––––––––––––––––––––––––––––––

Number of tracks: 15
Official DR value: DR14

Samplerate: 2822400 Hz / PCM Samplerate: 88200 Hz
Channels: 5
Bits per sample: 24
Bitrate: 14112 kbps
Codec: DST64
================================================================================

––––––––––––––––––––––––––––––––––––––––
Analyzed: Dave Brubeck Quartet / London Symphony Orchestra / London Voices / Russell Gloyd / Classical Brubeck
––––––––––––––––––––––––––––––––––––––––

DR Peak RMS Duration Track
––––––––––––––––––––––––––––––––––––––––
DR13 -16.48 dB -37.12 dB 1:40 01-Voice of the Holy Spirit : Preface
DR14 -9.65 dB -31.13 dB 4:19 02-Voice of the Holy Spirit : Full Authority
DR14 -9.41 dB -29.21 dB 7:00 03-Voice of the Holy Spirit : Witnesses
DR13 -8.86 dB -28.79 dB 2:05 04-Voice of the Holy Spirit : Pentecost
DR15 -8.06 dB -27.02 dB 8:10 05-Voice of the Holy Spirit : Tongues of Fire
DR15 -7.99 dB -25.36 dB 5:40 06-Voice of the Holy Spirit : New Wine
DR16 -10.07 dB -32.58 dB 3:53 07-Voice of the Holy Spirit : Peter's Sermon
DR16 -7.68 dB -31.46 dB 3:56 08-Voice of the Holy Spirit : Silver and Gold
DR13 -10.20 dB -30.76 dB 2:35 09-Voice of the Holy Spirit : Greater Gifts
DR16 -11.05 dB -34.17 dB 3:40 10-Voice of the Holy Spirit : Though I Speak with the Tongues
DR17 -7.92 dB -29.09 dB 5:47 11-Voice of the Holy Spirit : When I Was a Child
DR12 -18.83 dB -37.80 dB 1:46 12-Voice of the Holy Spirit : For Those Who Love God
DR10 -7.56 dB -22.61 dB 2:08 13-Voice of the Holy Spirit : Be Strong in the Lord
DR10 -16.22 dB -36.50 dB 0:57 14-Voice of the Holy Spirit : Benediction
DR14 -13.18 dB -33.15 dB 8:07 15-Regret
––––––––––––––––––––––––––––––––––––––––

Number of tracks: 15
Official DR value: DR14

Samplerate: 2822400 Hz / PCM Samplerate: 88200 Hz
Channels: 2
Bits per sample: 24
Bitrate: 5645 kbps
Codec: DST64


foobar2000 1.2.1 / Dynamic Range Meter 1.1.1

––––––––––––––––––––––––––––––––––––––––
Analyzed: Dave Brubeck Quartet / London Symphony Orchestra / London Voices / Russell Gloyd / Classical Brubeck
––––––––––––––––––––––––––––––––––––––––

DR Peak RMS Duration Track
––––––––––––––––––––––––––––––––––––––––
DR15 -3.98 dB -34.60 dB 12:06 01-Beloved Son : Abba Father
DR14 -5.41 dB -33.55 dB 17:15 02-Beloved Son : Eli
DR13 -3.88 dB -28.12 dB 10:03 03-Beloved Son : Rabboni
DR10 -29.41 dB -50.11 dB 0:45 04-Pange Lingua Variations : Pange Lingua
DR11 -10.81 dB -32.75 dB 1:36 05-Pange Lingua Variations : I. Sing my tongue sing
DR10 -32.18 dB -50.25 dB 0:47 06-Pange Lingua Variations : Nobis datus
DR11 -9.30 dB -37.97 dB 4:23 07-Pange Lingua Variations : II. To us is given
DR10 -28.03 dB -48.13 dB 0:44 08-Pange Lingua Variations : In supremae
DR13 -4.76 dB -30.11 dB 5:55 09-Pange Lingua Variations : III. Thus on the night
DR10 -36.16 dB -51.66 dB 1:09 10-Pange Lingua Variations : Verbum caro
DR10 -20.25 dB -40.81 dB 1:35 11-Pange Lingua Variations : IV. The word made flesh
DR10 -27.40 dB -44.99 dB 0:44 12-Pange Lingua Variations : Tantum ergo
DR9 -20.50 dB -38.58 dB 1:03 13-Pange Lingua Variations : V. Let us bow down
DR10 -10.76 dB -35.53 dB 2:12 14-Pange Lingua Variations : Brass Chorale
DR10 -11.87 dB -33.38 dB 1:41 15-Pange Lingua Variations : Meditation
DR11 -17.64 dB -40.12 dB 4:19 16-Pange Lingua Variations : Bow down (Improvisation)
DR11 -5.34 dB -30.46 dB 1:59 17-Pange Lingua Variations : Interlude
DR10 -4.68 dB -25.50 dB 1:52 18-Pange Lingua Variations : VI. Praise to the Father!
––––––––––––––––––––––––––––––––––––––––

Number of tracks: 18
Official DR value: DR11

Samplerate: 2822400 Hz / PCM Samplerate: 88200 Hz
Channels: 6
Bits per sample: 24
Bitrate: 16934 kbps
Codec: DST64
================================================================================

––––––––––––––––––––––––––––––––––––––––
Analyzed: Dave Brubeck Quartet / London Symphony Orchestra / London Voices / Russell Gloyd / Classical Brubeck
––––––––––––––––––––––––––––––––––––––––

DR Peak RMS Duration Track
––––––––––––––––––––––––––––––––––––––––
DR18 -7.27 dB -32.80 dB 12:06 01-Beloved Son : Abba Father
DR17 -8.37 dB -32.18 dB 17:15 02-Beloved Son : Eli
DR14 -5.18 dB -24.65 dB 10:06 03-Beloved Son : Rabboni
DR10 -31.19 dB -50.92 dB 0:47 04-Pange Lingua Variations : Pange Lingua
DR14 -11.76 dB -30.94 dB 1:36 05-Pange Lingua Variations : I. Sing my tongue sing
DR12 -35.77 dB -51.65 dB 0:47 06-Pange Lingua Variations : Nobis datus
DR15 -11.78 dB -36.00 dB 4:23 07-Pange Lingua Variations : II. To us is given
DR12 -29.61 dB -48.01 dB 0:44 08-Pange Lingua Variations : In supremae
DR15 -8.37 dB -27.88 dB 5:55 09-Pange Lingua Variations : III. Thus on the night
DR11 -40.36 dB -54.00 dB 1:09 10-Pange Lingua Variations : Verbum caro
DR12 -22.77 dB -39.42 dB 1:35 11-Pange Lingua Variations : IV. The word made flesh
DR12 -29.90 dB -45.64 dB 0:44 12-Pange Lingua Variations : Tantum ergo
DR11 -21.74 dB -36.82 dB 1:03 13-Pange Lingua Variations : V. Let us bow down
DR13 -14.87 dB -35.03 dB 2:12 14-Pange Lingua Variations : Brass Chorale
DR12 -14.38 dB -32.38 dB 1:41 15-Pange Lingua Variations : Meditation
DR13 -19.14 dB -37.25 dB 4:19 16-Pange Lingua Variations : Bow down (Improvisation)
DR13 -8.46 dB -29.02 dB 1:59 17-Pange Lingua Variations : Interlude
DR12 -6.76 dB -23.86 dB 1:54 18-Pange Lingua Variations : VI. Praise to the Father!
––––––––––––––––––––––––––––––––––––––––

Number of tracks: 18
Official DR value: DR13

Samplerate: 2822400 Hz / PCM Samplerate: 88200 Hz
Channels: 2
Bits per sample: 24
Bitrate: 5645 kbps
Codec: DST64


Thanks to SergeyVP!
Uncompressed SACD ISO size > 3,74 + 4,2 GB
>