Dave Brubeck Quartet - Time Out (1959) [Analogue Productions 2012] MCH PS3 ISO + Hi-Res FLAC

Posted By: HDAtall
Dave Brubeck Quartet - Time Out (1959) [Analogue Productions 2012] MCH PS3 ISO + Hi-Res FLAC

The Dave Brubeck Quartet - Time Out (1959) [APO Remaster 2012]
PS3 Rip | SACD ISO | DSD64 2.0 & DST64 5.0 > 1-bit/2.8224 MHz | 38:32 minutes | Full Scans included | 2,66 GB
or FLAC 2.0 Stereo (converted with foobar2000 to tracks) 24bit/96 kHz | 38:48 min | Scans included | 894 MB

Time Out is a studio album by the American jazz group the Dave Brubeck Quartet, released in 1959 on Columbia Records. Recorded at Columbia's 30th Street Studio in New York City, it is based upon the use of time signatures that were unusual for jazz. The album is a subtle blend of Cool and West Coast jazz. It peaked at No. 2 on the Billboard pop albums chart, and has been certified platinum by the RIAA. It was also listed in the book 1001 Albums You Must Hear Before You Die.

Dave Brubeck's defining masterpiece, Time Out is one of the most rhythmically innovative albums in jazz history, the first to consciously explore time signatures outside of the standard 4/4 beat or 3/4 waltz time. It was a risky move – Brubeck's record company wasn't keen on releasing such an arty project, and many critics initially roasted him for tampering with jazz's rhythmic foundation. But for once, public taste was more advanced than that of the critics. Buoyed by a hit single in altoist Paul Desmond's ubiquitous "Take Five," Time Out became an unexpectedly huge success, and still ranks as one of the most popular jazz albums ever. That's a testament to Brubeck and Desmond's abilities as composers, because Time Out is full of challenges both subtle and overt – it's just that they're not jarring. Brubeck's classic "Blue Rondo à la Turk" blends jazz with classical form and Turkish folk rhythms, while "Take Five," despite its overexposure, really is a masterpiece; listen to how well Desmond's solo phrasing fits the 5/4 meter, and how much Joe Morello's drum solo bends time without getting lost. The other selections are richly melodic as well, and even when the meters are even, the group sets up shifting polyrhythmic counterpoints that nod to African and Eastern musics. Some have come to disdain Time Out as its become increasingly synonymous with upscale coffeehouse ambience, but as someone once said of Shakespeare, it's really very good in spite of the people who like it. It doesn't just sound sophisticated – it really is sophisticated music, which lends itself to cerebral appreciation, yet never stops swinging. Countless other musicians built on its pioneering experiments, yet it's amazingly accessible for all its advanced thinking, a rare feat in any art form. This belongs in even the most rudimentary jazz collection.

Tracklist:

01. Blue Rondo A La Turk
02. Strange Meadow Lark
03. Take Five
04. Three To Get Ready
05. Kathy's Waltz
06. Everybody's Jumpin'
07. Pick Up Sticks

Personnel
Dave Brubeck - piano
Paul Desmond - alto saxophone
Eugene Wright - bass
Joe Morello - drums

Recorded on June 25, 1959 (4-6); July 1, 1959 (2,3); August 18, 1959 (1,7) at Columbia 30th Street Studio, New York.
Authored for SACD by Gus Skinas on the SONOMA system at the Super Audio Center, Boulder, Colorado.

foobar2000 1.4.6 / Dynamic Range Meter 1.1.1

––––––––––––––––––––––––––––––––––––––––
Analyzed: Dave Brubeck Quartet / Time Out
––––––––––––––––––––––––––––––––––––––––

DR Peak RMS Duration Track
––––––––––––––––––––––––––––––––––––––––
DR14 -8.28 dB -27.53 dB 6:45 01-Blue Rondo A La Turk
DR14 -8.69 dB -29.66 dB 7:25 02-Strange Meadow Lark
DR14 -5.81 dB -26.70 dB 5:26 03-Take Five
DR14 -8.46 dB -27.50 dB 5:25 04-Three To Get Ready
DR13 -8.19 dB -28.11 dB 4:49 05-Kathy's Waltz
DR14 -7.53 dB -28.12 dB 4:24 06-Everybody's Jumpin'
DR14 -8.51 dB -28.45 dB 4:18 07-Pick Up Sticks
––––––––––––––––––––––––––––––––––––––––

Number of tracks: 7
Official DR value: DR14

Samplerate: 2822400 Hz / PCM Samplerate: 176400 Hz
Channels: 5
Bits per sample: 1
Bitrate: 14112 kbps
Codec: DST64
================================================================================

––––––––––––––––––––––––––––––––––––––––
Analyzed: Dave Brubeck Quartet / Time Out
––––––––––––––––––––––––––––––––––––––––

DR Peak RMS Duration Track
––––––––––––––––––––––––––––––––––––––––
DR14 -5.14 dB -24.81 dB 6:48 01-Blue Rondo A La Turk
DR15 -8.42 dB -28.06 dB 7:26 02-Strange Meadow Lark
DR15 -6.00 dB -25.27 dB 5:29 03-Take Five
DR15 -8.23 dB -27.47 dB 5:27 04-Three To Get Ready
DR14 -10.23 dB -28.01 dB 4:51 05-Kathy's Waltz
DR15 -7.14 dB -27.03 dB 4:25 06-Everybody's Jumpin'
DR15 -9.90 dB -28.08 dB 4:22 07-Pick Up Sticks
––––––––––––––––––––––––––––––––––––––––

Number of tracks: 7
Official DR value: DR15

Samplerate: 2822400 Hz / PCM Samplerate: 176400 Hz
Channels: 2
Bits per sample: 1
Bitrate: 5645 kbps
Codec: DSD64


Thanks to PS³SACD!
Uncompressed SACD ISO size > 3,03 GB
>