David Chesky - Urbanicity: Concerto for Electric Guitar and Orchestra / The New York Variations (2010) [24bit/48kHz]

Posted By: HDV
David Chesky - Urbanicity: Concerto for Electric Guitar and Orchestra / The New York Variations (2010) [24bit/48kHz]

David Chesky - Urbanicity: Concerto for Electric Guitar and Orchestra / The New York Variations (2010)
FLAC (tracks) 24 bit/48 kHz | Time - 63:16 minutes | 643 MB
Official Digital Download - Source: | Digital Booklet

There have been ambitious attempts in the past at marrying the audacious power of electric guitar and the throbbing rhythms of rock music with a classically-trained, through-composed sensibility…

Sixties rock guitar hero Frank Zappa, leader of the irreverent Mothers of Invention, composed large scale symphonic works like 1967’s Lumpy Gravy, 1979’s Orchestral Favorites and 1983’s London Symphony Orchestra, Vol. 1, though none of those prominently featured the electric guitar. One-time No Wave guitarist and composer Rhys Chatham explored the concept of large guitar ensembles on his 1982 ballet Drastic Classicism, then later assembled 100 guitars for 1989’s An Angel Moves Too Fast To See and 400 guitars for 2005’s A Crimson Grail. His colleague Glenn Branca explored the density and dissonance of alternate tunings in large guitar ensembles on majestic works like 1980’s Lesson No. 1, 1981’s The Ascension and 1983’s Symphony No. 3 while later composing for the traditional orchestra and guitar on 1987’s Symphony No. 7. Others have tried their hand at this bridging of rock and classical worlds (Norwegian guitarist Terje Rypdal achieved a successful blend on his Double Concerto/5th Symphony with the Riga Festival Orchestra of Latvia and his Undisonus with London’s Royal Philharmonic Orchestra). But none (save Zappa) has possessed the classical pedigree and compositional integrity to pull off this melding as honestly and organically as Grammy-nominated American composer David Chesky does on his Concerto for Electric Guitar and Orchestra. "My feeling is, we live in a contemporary age and we need to treat the electric guitar just like a violin," says Chesky. "It’s part of our vocabulary today. And for the orchestra world to survive, it needs to be contemporary and reflect the world around it".

Tracklist:

01 - Urbanicity: Movement 1
02 - Urbanicity: Movement 2
03 - Urbanicity: Movement 3
04 - Concerto for Electric Guitar and Orchestra: Movement 1
05 - Concerto for Electric Guitar and Orchestra: Movement 2
06 - Concerto for Electric Guitar and Orchestra: Movement 3
07 - The New York Variations: Movement 1
08 - The New York Variations: Movement 2
09 - The New York Variations: Movement 3

Analyzed: David Chesky | Urbanicity Orchestra of New York | Bryan Baker, soloist / Urbanicity / Concerto for Electric Guitar and Orchestra / The New York Variations
––––––––––––––––––––––––––––––––––––––––

DR Peak RMS Duration Track
––––––––––––––––––––––––––––––––––––––––
DR15 -0.28 dB -21.99 dB 6:42 01-Urbanicity: Movement 1
DR14 -6.70 dB -28.00 dB 6:26 02-Urbanicity: Movement 2
DR12 -0.28 dB -16.34 dB 7:58 03-Urbanicity: Movement 3
DR12 -2.75 dB -22.07 dB 6:29 04-Concerto for Electric Guitar and Orchestra: Movement 1
DR16 -2.31 dB -25.95 dB 6:17 05-Concerto for Electric Guitar and Orchestra: Movement 2
DR15 -0.28 dB -20.65 dB 6:36 06-Concerto for Electric Guitar and Orchestra: Movement 3
DR15 -1.49 dB -22.72 dB 6:54 07-The New York Variations: Movement 1
DR14 -7.10 dB -27.55 dB 10:02 08-The New York Variations: Movement 2
DR14 -0.34 dB -19.21 dB 5:52 09-The New York Variations: Movement 3
––––––––––––––––––––––––––––––––––––––––

Number of tracks: 9
Official DR value: DR14

Samplerate: 48000 Hz
Channels: 2
Bits per sample: 24
Bitrate: 1430 kbps
Codec: FLAC
================================================================================


Thanks to the Original releaser!

David Chesky - Area 31 (2005) [24bit/96kHz]